  0
SECTION
  2
HEADER
  9
$ACADVER
  1
AC1009
  9
$INSBASE
 10
0.0
 20
0.0
 30
0.0
  9
$EXTMIN
 10
38.669627
 20
33.526985
 30
0.0
  9
$EXTMAX
 10
169.932846
 20
136.368621
 30
0.0
  9
$LIMMIN
 10
0.0
 20
0.0
  9
$LIMMAX
 10
420.0
 20
297.0
  9
$ORTHOMODE
 70
     1
  9
$REGENMODE
 70
     1
  9
$FILLMODE
 70
     1
  9
$QTEXTMODE
 70
     0
  9
$MIRRTEXT
 70
     1
  9
$DRAGMODE
 70
     2
  9
$LTSCALE
 40
0.3
  9
$OSMODE
 70
   191
  9
$ATTMODE
 70
     1
  9
$TEXTSIZE
 40
2.5
  9
$TRACEWID
 40
1.0
  9
$TEXTSTYLE
  7
STANDARD
  9
$CLAYER
  8
0
  9
$CELTYPE
  6
ACAD_ISO02W100
  9
$CECOLOR
 62
   256
  9
$DIMSCALE
 40
0.0
  9
$DIMASZ
 40
2.0
  9
$DIMEXO
 40
0.625
  9
$DIMDLI
 40
3.75
  9
$DIMRND
 40
0.0
  9
$DIMDLE
 40
0.0
  9
$DIMEXE
 40
1.25
  9
$DIMTP
 40
0.0
  9
$DIMTM
 40
0.0
  9
$DIMTXT
 40
2.0
  9
$DIMCEN
 40
1.0
  9
$DIMTSZ
 40
0.0
  9
$DIMTOL
 70
     0
  9
$DIMLIM
 70
     0
  9
$DIMTIH
 70
     0
  9
$DIMTOH
 70
     0
  9
$DIMSE1
 70
     0
  9
$DIMSE2
 70
     0
  9
$DIMTAD
 70
     1
  9
$DIMZIN
 70
     8
  9
$DIMBLK
  1

  9
$DIMASO
 70
     1
  9
$DIMSHO
 70
     1
  9
$DIMPOST
  1

  9
$DIMAPOST
  1

  9
$DIMALT
 70
     0
  9
$DIMALTD
 70
     4
  9
$DIMALTF
 40
0.0394
  9
$DIMLFAC
 40
1.0
  9
$DIMTOFL
 70
     1
  9
$DIMTVP
 40
0.0
  9
$DIMTIX
 70
     0
  9
$DIMSOXD
 70
     0
  9
$DIMSAH
 70
     0
  9
$DIMBLK1
  1

  9
$DIMBLK2
  1

  9
$DIMSTYLE
  2
STANDARD
  9
$DIMCLRD
 70
     0
  9
$DIMCLRE
 70
     0
  9
$DIMCLRT
 70
     0
  9
$DIMTFAC
 40
1.0
  9
$DIMGAP
 40
1.0
  9
$LUNITS
 70
     2
  9
$LUPREC
 70
     4
  9
$SKETCHINC
 40
1.0
  9
$FILLETRAD
 40
0.1
  9
$AUNITS
 70
     0
  9
$AUPREC
 70
     0
  9
$MENU
  1
acad
  9
$ELEVATION
 40
0.0
  9
$PELEVATION
 40
0.0
  9
$THICKNESS
 40
0.0
  9
$LIMCHECK
 70
     0
  9
$BLIPMODE
 70
     0
  9
$CHAMFERA
 40
0.0
  9
$CHAMFERB
 40
0.0
  9
$SKPOLY
 70
     0
  9
$TDCREATE
 40
2451801.38001
  9
$TDUPDATE
 40
2451884.312752
  9
$TDINDWG
 40
3.383937
  9
$TDUSRTIMER
 40
3.383937
  9
$USRTIMER
 70
     1
  9
$ANGBASE
 50
0.0
  9
$ANGDIR
 70
     0
  9
$PDMODE
 70
     0
  9
$PDSIZE
 40
0.0
  9
$PLINEWID
 40
0.0
  9
$COORDS
 70
     1
  9
$SPLFRAME
 70
     0
  9
$SPLINETYPE
 70
     6
  9
$SPLINESEGS
 70
     8
  9
$ATTDIA
 70
     0
  9
$ATTREQ
 70
     1
  9
$HANDLING
 70
     1
  9
$HANDSEED
  5
732
  9
$SURFTAB1
 70
     6
  9
$SURFTAB2
 70
     6
  9
$SURFTYPE
 70
     6
  9
$SURFU
 70
     6
  9
$SURFV
 70
     6
  9
$UCSNAME
  2

  9
$UCSORG
 10
0.0
 20
0.0
 30
0.0
  9
$UCSXDIR
 10
1.0
 20
0.0
 30
0.0
  9
$UCSYDIR
 10
0.0
 20
1.0
 30
0.0
  9
$PUCSNAME
  2

  9
$PUCSORG
 10
0.0
 20
0.0
 30
0.0
  9
$PUCSXDIR
 10
1.0
 20
0.0
 30
0.0
  9
$PUCSYDIR
 10
0.0
 20
1.0
 30
0.0
  9
$USERI1
 70
     0
  9
$USERI2
 70
     0
  9
$USERI3
 70
     0
  9
$USERI4
 70
     0
  9
$USERI5
 70
     0
  9
$USERR1
 40
0.0
  9
$USERR2
 40
0.0
  9
$USERR3
 40
0.0
  9
$USERR4
 40
0.0
  9
$USERR5
 40
0.0
  9
$WORLDVIEW
 70
     1
  9
$SHADEDGE
 70
     3
  9
$SHADEDIF
 70
    70
  9
$TILEMODE
 70
     1
  9
$MAXACTVP
 70
    48
  9
$PLIMCHECK
 70
     0
  9
$PEXTMIN
 10
1.000000E+020
 20
1.000000E+020
 30
1.000000E+020
  9
$PEXTMAX
 10
-1.000000E+020
 20
-1.000000E+020
 30
-1.000000E+020
  9
$PLIMMIN
 10
0.0
 20
0.0
  9
$PLIMMAX
 10
420.0
 20
297.0
  9
$UNITMODE
 70
     0
  9
$VISRETAIN
 70
     1
  9
$PLINEGEN
 70
     0
  9
$PSLTSCALE
 70
     1
  0
ENDSEC
  0
SECTION
  2
TABLES
  0
TABLE
  2
VPORT
 70
     2
  0
VPORT
  2
*ACTIVE
 70
     0
 10
0.0
 20
0.0
 11
1.0
 21
1.0
 12
126.832725
 22
83.28875
 13
0.0
 23
0.0
 14
10.0
 24
10.0
 15
25.0
 25
25.0
 16
0.0
 26
0.0
 36
1.0
 17
0.0
 27
0.0
 37
0.0
 40
127.130418
 41
1.700368
 42
50.0
 43
0.0
 44
0.0
 50
0.0
 51
0.0
 71
     0
 72
   100
 73
     1
 74
     1
 75
     0
 76
     0
 77
     0
 78
     0
  0
ENDTAB
  0
TABLE
  2
LTYPE
 70
     2
  0
LTYPE
  2
CONTINUOUS
 70
     0
  3
Solid line
 72
    65
 73
     0
 40
0.0
  0
LTYPE
  2
ACAD_ISO02W100
 70
     0
  3
ISO dash __ __ __ __ __ __ __ __ __ __ __ __ __
 72
    65
 73
     2
 40
15.0
 49
12.0
 49
-3.0
  0
ENDTAB
  0
TABLE
  2
LAYER
 70
     3
  0
LAYER
  2
0
 70
     0
 62
     7
  6
CONTINUOUS
  0
LAYER
  2
MATEN
 70
     0
 62
     1
  6
CONTINUOUS
  0
LAYER
  2
DEFPOINTS
 70
     0
 62
     7
  6
CONTINUOUS
  0
ENDTAB
  0
TABLE
  2
STYLE
 70
     1
  0
STYLE
  2
STANDARD
 70
     0
 40
0.0
 41
1.0
 50
0.0
 71
     0
 42
2.5
  3
txt
  4

  0
ENDTAB
  0
TABLE
  2
VIEW
 70
     0
  0
ENDTAB
  0
TABLE
  2
UCS
 70
     0
  0
ENDTAB
  0
TABLE
  2
APPID
 70
     1
  0
APPID
  2
ACAD
 70
     0
  0
ENDTAB
  0
TABLE
  2
DIMSTYLE
 70
     1
  0
DIMSTYLE
  2
STANDARD
 70
     0
  3

  4

  5

  6

  7

 40
1.0
 41
0.18
 42
0.0625
 43
0.38
 44
0.18
 45
0.0
 46
0.0
 47
0.0
 48
0.0
140
0.18
141
0.09
142
0.0
143
25.4
144
1.0
145
0.0
146
1.0
147
0.09
 71
     0
 72
     0
 73
     1
 74
     1
 75
     0
 76
     0
 77
     0
 78
     0
170
     0
171
     2
172
     0
173
     0
174
     0
175
     0
176
     0
177
     0
178
     0
  0
ENDTAB
  0
ENDSEC
  0
SECTION
  2
BLOCKS
  0
BLOCK
  8
0
  2
$MODEL_SPACE
 70
     0
 10
0.0
 20
0.0
 30
0.0
  3
$MODEL_SPACE
  1

  0
ENDBLK
  5
6
  8
0
  0
BLOCK
 67
     1
  8
0
  2
$PAPER_SPACE
 70
     0
 10
0.0
 20
0.0
 30
0.0
  3
$PAPER_SPACE
  1

  0
ENDBLK
  5
9
 67
     1
  8
0
  0
BLOCK
  8
0
  2
*D0
 70
     1
 10
0.0
 20
0.0
 30
0.0
  3
*D0
  1

  0
LINE
  5
1B7
  8
0
  6
BYBLOCK
 62
     0
 10
61.642585
 20
63.805229
 30
0.0
 11
73.37363
 21
49.702001
 31
0.0
  0
LINE
  5
1B8
  8
0
  6
BYBLOCK
 62
     0
 10
82.812469
 20
38.354495
 30
0.0
 11
84.091445
 21
36.816892
 31
0.0
  0
TEXT
  8
0
  40
2
  5
71E
  62
0
  72
0
  71
0
 10
62.6974
 20
57.3158
 30
0.000000
  1
%%c10.76
  0
LINE
  5
1BA
  8
0
  6
BYBLOCK
 62
     0
 10
81.533494
 20
39.892097
 30
0.0
 11
74.652605
 21
48.164399
 31
0.0
  0
SOLID
  5
1BB
  8
0
  6
BYBLOCK
 62
     0
 10
83.068737
 20
38.567657
 30
0.0
 11
82.556202
 21
38.141332
 31
0.0
 12
81.533494
 22
39.892097
 32
0.0
 13
81.533494
 23
39.892097
 33
0.0
  0
SOLID
  5
1BC
  8
0
  6
BYBLOCK
 62
     0
 10
73.629897
 20
49.915164
 30
0.0
 11
73.117363
 21
49.488839
 31
0.0
 12
74.652605
 22
48.164399
 32
0.0
 13
74.652605
 23
48.164399
 33
0.0
  0
POINT
  5
1BD
  8
DEFPOINTS
  6
BYBLOCK
 62
     0
 10
74.652605
 20
48.164399
 30
0.0
  0
POINT
  5
1BE
  8
DEFPOINTS
  6
BYBLOCK
 62
     0
 10
81.533494
 20
39.892097
 30
0.0
  0
ENDBLK
  5
1BF
  8
0
  0
BLOCK
  8
0
  2
*D1
 70
     1
 10
0.0
 20
0.0
 30
0.0
  3
*D1
  1

  0
LINE
  5
1D6
  8
0
  6
BYBLOCK
 62
     0
 10
87.030211
 20
51.232967
 30
0.0
 11
97.240975
 21
51.232967
 31
0.0
  0
LINE
  5
1D7
  8
0
  6
BYBLOCK
 62
     0
 10
87.030211
 20
36.823529
 30
0.0
 11
97.240975
 21
36.823529
 31
0.0
  0
LINE
  5
1D8
  8
0
  6
BYBLOCK
 62
     0
 10
95.990975
 20
49.232967
 30
0.0
 11
95.990975
 21
38.823529
 31
0.0
  0
SOLID
  5
1D9
  8
0
  6
BYBLOCK
 62
     0
 10
95.657642
 20
49.232967
 30
0.0
 11
96.324309
 21
49.232967
 31
0.0
 12
95.990975
 22
51.232967
 32
0.0
 13
95.990975
 23
51.232967
 33
0.0
  0
SOLID
  5
1DA
  8
0
  6
BYBLOCK
 62
     0
 10
95.657642
 20
38.823529
 30
0.0
 11
96.324309
 21
38.823529
 31
0.0
 12
95.990975
 22
36.823529
 32
0.0
 13
95.990975
 23
36.823529
 33
0.0
  0
TEXT
  8
0
  40
2
  5
71F
  62
0
  72
0
  71
0
 10
89.9910
 20
39.6169
 30
0.000000
  1
14.41
  0
POINT
  5
1DC
  8
DEFPOINTS
  6
BYBLOCK
 62
     0
 10
86.405211
 20
51.232967
 30
0.0
  0
POINT
  5
1DD
  8
DEFPOINTS
  6
BYBLOCK
 62
     0
 10
86.405211
 20
36.823529
 30
0.0
  0
POINT
  5
1DE
  8
DEFPOINTS
  6
BYBLOCK
 62
     0
 10
95.990975
 20
36.823529
 30
0.0
  0
ENDBLK
  5
1DF
  8
0
  0
BLOCK
  8
0
  2
*D2
 70
     1
 10
0.0
 20
0.0
 30
0.0
  3
*D2
  1

  0
LINE
  5
1E3
  8
0
  6
BYBLOCK
 62
     0
 10
69.780888
 20
36.198529
 30
0.0
 11
69.780888
 21
26.638231
 31
0.0
  0
LINE
  5
1E4
  8
0
  6
BYBLOCK
 62
     0
 10
86.405211
 20
36.198529
 30
0.0
 11
86.405211
 21
26.638231
 31
0.0
  0
LINE
  5
1E5
  8
0
  6
BYBLOCK
 62
     0
 10
71.780888
 20
27.888231
 30
0.0
 11
84.405211
 21
27.888231
 31
0.0
  0
SOLID
  5
1E6
  8
0
  6
BYBLOCK
 62
     0
 10
71.780888
 20
28.221564
 30
0.0
 11
71.780888
 21
27.554898
 31
0.0
 12
69.780888
 22
27.888231
 32
0.0
 13
69.780888
 23
27.888231
 33
0.0
  0
SOLID
  5
1E7
  8
0
  6
BYBLOCK
 62
     0
 10
84.405211
 20
28.221564
 30
0.0
 11
84.405211
 21
27.554898
 31
0.0
 12
86.405211
 22
27.888231
 32
0.0
 13
86.405211
 23
27.888231
 33
0.0
  0
TEXT
  8
0
  40
2
  5
720
  62
0
  72
0
  71
0
 10
75.7385
 20
26.3482
 30
0.000000
  1
16.62
  0
POINT
  5
1E9
  8
DEFPOINTS
  6
BYBLOCK
 62
     0
 10
69.780888
 20
36.823529
 30
0.0
  0
POINT
  5
1EA
  8
DEFPOINTS
  6
BYBLOCK
 62
     0
 10
86.405211
 20
36.823529
 30
0.0
  0
POINT
  5
1EB
  8
DEFPOINTS
  6
BYBLOCK
 62
     0
 10
86.405211
 20
27.888231
 30
0.0
  0
ENDBLK
  5
1EC
  8
0
  0
BLOCK
  8
0
  2
*D3
 70
     1
 10
0.0
 20
0.0
 30
0.0
  3
*D3
  1

  0
LINE
  5
1FD
  8
0
  6
BYBLOCK
 62
     0
 10
69.750082
 20
64.744731
 30
0.0
 11
73.236695
 21
56.087096
 31
0.0
  0
LINE
  5
1FE
  8
0
  6
BYBLOCK
 62
     0
 10
82.949404
 20
31.9694
 30
0.0
 11
83.696536
 21
30.114192
 31
0.0
  0
TEXT
  8
0
  40
2
  5
721
  62
0
  72
0
  71
0
 10
68.9750
 20
58.5506
 30
0.000000
  1
%%c22
  0
LINE
  5
200
  8
0
  6
BYBLOCK
 62
     0
 10
82.202273
 20
33.824607
 30
0.0
 11
73.983827
 21
54.231889
 31
0.0
  0
SOLID
  5
201
  8
0
  6
BYBLOCK
 62
     0
 10
83.258605
 20
32.093922
 30
0.0
 11
82.640203
 21
31.844878
 31
0.0
 12
82.202273
 22
33.824607
 32
0.0
 13
82.202273
 23
33.824607
 33
0.0
  0
SOLID
  5
202
  8
0
  6
BYBLOCK
 62
     0
 10
73.545896
 20
56.211618
 30
0.0
 11
72.927494
 21
55.962574
 31
0.0
 12
73.983827
 22
54.231889
 32
0.0
 13
73.983827
 23
54.231889
 33
0.0
  0
POINT
  5
203
  8
DEFPOINTS
  6
BYBLOCK
 62
     0
 10
73.983827
 20
54.231889
 30
0.0
  0
POINT
  5
204
  8
DEFPOINTS
  6
BYBLOCK
 62
     0
 10
82.202273
 20
33.824607
 30
0.0
  0
ENDBLK
  5
205
  8
0
  0
BLOCK
  8
0
  2
*D4
 70
     1
 10
0.0
 20
0.0
 30
0.0
  3
*D4
  1

  0
LINE
  5
226
  8
0
  6
BYBLOCK
 62
     0
 10
78.478935
 20
55.025649
 30
0.0
 11
111.901371
 21
55.025649
 31
0.0
  0
LINE
  5
227
  8
0
  6
BYBLOCK
 62
     0
 10
87.030211
 20
36.823529
 30
0.0
 11
111.901371
 21
36.823529
 31
0.0
  0
LINE
  5
228
  8
0
  6
BYBLOCK
 62
     0
 10
110.651371
 20
53.025649
 30
0.0
 11
110.651371
 21
38.823529
 31
0.0
  0
SOLID
  5
229
  8
0
  6
BYBLOCK
 62
     0
 10
110.318038
 20
53.025649
 30
0.0
 11
110.984704
 21
53.025649
 31
0.0
 12
110.651371
 22
55.025649
 32
0.0
 13
110.651371
 23
55.025649
 33
0.0
  0
SOLID
  5
22A
  8
0
  6
BYBLOCK
 62
     0
 10
110.318038
 20
38.823529
 30
0.0
 11
110.984704
 21
38.823529
 31
0.0
 12
110.651371
 22
36.823529
 32
0.0
 13
110.651371
 23
36.823529
 33
0.0
  0
TEXT
  8
0
  40
2
  5
722
  62
0
  72
0
  71
0
 10
104.651
 20
41.7138
 30
0.000000
  1
18.2
  0
POINT
  5
22C
  8
DEFPOINTS
  6
BYBLOCK
 62
     0
 10
77.853935
 20
55.025649
 30
0.0
  0
POINT
  5
22D
  8
DEFPOINTS
  6
BYBLOCK
 62
     0
 10
86.405211
 20
36.823529
 30
0.0
  0
POINT
  5
22E
  8
DEFPOINTS
  6
BYBLOCK
 62
     0
 10
110.651371
 20
36.823529
 30
0.0
  0
ENDBLK
  5
22F
  8
0
  0
BLOCK
  8
0
  2
*D5
 70
     1
 10
0.0
 20
0.0
 30
0.0
  3
*D5
  1

  0
LINE
  5
6B1
  8
0
  6
BYBLOCK
 62
     0
 10
72.21305
 20
122.704467
 30
0.0
 11
72.21305
 21
126.192066
 31
0.0
  0
LINE
  5
6B2
  8
0
  6
BYBLOCK
 62
     0
 10
83.97305
 20
122.704467
 30
0.0
 11
83.97305
 21
126.192066
 31
0.0
  0
LINE
  5
6B3
  8
0
  6
BYBLOCK
 62
     0
 10
74.21305
 20
124.942066
 30
0.0
 11
81.97305
 21
124.942066
 31
0.0
  0
SOLID
  5
6B4
  8
0
  6
BYBLOCK
 62
     0
 10
74.21305
 20
125.275399
 30
0.0
 11
74.21305
 21
124.608733
 31
0.0
 12
72.21305
 22
124.942066
 32
0.0
 13
72.21305
 23
124.942066
 33
0.0
  0
SOLID
  5
6B5
  8
0
  6
BYBLOCK
 62
     0
 10
81.97305
 20
125.275399
 30
0.0
 11
81.97305
 21
124.608733
 31
0.0
 12
83.97305
 22
124.942066
 32
0.0
 13
83.97305
 23
124.942066
 33
0.0
  0
TEXT
  8
0
  40
2
  5
723
  62
0
  72
0
  71
0
 10
74.0931
 20
123.402
 30
0.000000
  1
%%c11.76
  0
POINT
  5
6B7
  8
DEFPOINTS
  6
BYBLOCK
 62
     0
 10
72.21305
 20
122.079467
 30
0.0
  0
POINT
  5
6B8
  8
DEFPOINTS
  6
BYBLOCK
 62
     0
 10
83.97305
 20
122.079467
 30
0.0
  0
POINT
  5
6B9
  8
DEFPOINTS
  6
BYBLOCK
 62
     0
 10
83.97305
 20
124.942066
 30
0.0
  0
ENDBLK
  5
6BA
  8
0
  0
BLOCK
  8
0
  2
*D6
 70
     1
 10
0.0
 20
0.0
 30
0.0
  3
*D6
  1

  0
LINE
  5
354
  8
0
  6
BYBLOCK
 62
     0
 10
157.164395
 20
115.665714
 30
0.0
 11
139.474531
 21
71.142666
 31
0.0
  0
LINE
  5
355
  8
0
  6
BYBLOCK
 62
     0
 10
134.024519
 20
57.425707
 30
0.0
 11
133.286035
 21
55.56704
 31
0.0
  0
TEXT
  8
0
  40
2
  5
724
  62
0
  72
0
  71
0
 10
147.159
 20
103.106
 30
0.000000
  1
Trapezium draad
  0
LINE
  5
357
  8
0
  6
BYBLOCK
 62
     0
 10
134.763003
 20
59.284373
 30
0.0
 11
138.736047
 21
69.283999
 31
0.0
  0
SOLID
  5
358
  8
0
  6
BYBLOCK
 62
     0
 10
133.714741
 20
57.548787
 30
0.0
 11
134.334296
 21
57.302626
 31
0.0
 12
134.763003
 22
59.284373
 32
0.0
 13
134.763003
 23
59.284373
 33
0.0
  0
SOLID
  5
359
  8
0
  6
BYBLOCK
 62
     0
 10
139.164753
 20
71.265746
 30
0.0
 11
139.784308
 21
71.019585
 31
0.0
 12
138.736047
 22
69.283999
 32
0.0
 13
138.736047
 23
69.283999
 33
0.0
  0
POINT
  5
35A
  8
DEFPOINTS
  6
BYBLOCK
 62
     0
 10
138.736047
 20
69.283999
 30
0.0
  0
POINT
  5
35B
  8
DEFPOINTS
  6
BYBLOCK
 62
     0
 10
134.763003
 20
59.284373
 30
0.0
  0
ENDBLK
  5
35C
  8
0
  0
BLOCK
  8
0
  2
*D7
 70
     1
 10
0.0
 20
0.0
 30
0.0
  3
*D7
  1

  0
LINE
  5
5D6
  8
0
  6
BYBLOCK
 62
     0
 10
53.09393
 20
122.704467
 30
0.0
 11
53.09393
 21
134.618621
 31
0.0
  0
LINE
  5
5D7
  8
0
  6
BYBLOCK
 62
     0
 10
103.092169
 20
122.704467
 30
0.0
 11
103.092169
 21
134.618621
 31
0.0
  0
LINE
  5
5D8
  8
0
  6
BYBLOCK
 62
     0
 10
55.09393
 20
133.368621
 30
0.0
 11
101.092169
 21
133.368621
 31
0.0
  0
SOLID
  5
5D9
  8
0
  6
BYBLOCK
 62
     0
 10
55.09393
 20
133.701954
 30
0.0
 11
55.09393
 21
133.035288
 31
0.0
 12
53.09393
 22
133.368621
 32
0.0
 13
53.09393
 23
133.368621
 33
0.0
  0
SOLID
  5
5DA
  8
0
  6
BYBLOCK
 62
     0
 10
101.092169
 20
133.701954
 30
0.0
 11
101.092169
 21
133.035288
 31
0.0
 12
103.092169
 22
133.368621
 32
0.0
 13
103.092169
 23
133.368621
 33
0.0
  0
TEXT
  8
0
  40
2
  5
725
  62
0
  72
0
  71
0
 10
73.8504
 20
131.829
 30
0.000000
  1
50
  0
POINT
  5
5DC
  8
DEFPOINTS
  6
BYBLOCK
 62
     0
 10
53.09393
 20
122.079467
 30
0.0
  0
POINT
  5
5DD
  8
DEFPOINTS
  6
BYBLOCK
 62
     0
 10
103.092169
 20
122.079467
 30
0.0
  0
POINT
  5
5DE
  8
DEFPOINTS
  6
BYBLOCK
 62
     0
 10
103.092169
 20
133.368621
 30
0.0
  0
ENDBLK
  5
5DF
  8
0
  0
BLOCK
  8
0
  2
*D8
 70
     1
 10
0.0
 20
0.0
 30
0.0
  3
*D8
  1

  0
LINE
  5
5E3
  8
0
  6
BYBLOCK
 62
     0
 10
52.46893
 20
94.079467
 30
0.0
 11
41.172414
 21
94.079467
 31
0.0
  0
LINE
  5
5E4
  8
0
  6
BYBLOCK
 62
     0
 10
52.46893
 20
122.079467
 30
0.0
 11
41.172414
 21
122.079467
 31
0.0
  0
LINE
  5
5E5
  8
0
  6
BYBLOCK
 62
     0
 10
42.422414
 20
96.079467
 30
0.0
 11
42.422414
 21
120.079467
 31
0.0
  0
SOLID
  5
5E6
  8
0
  6
BYBLOCK
 62
     0
 10
42.089081
 20
96.079467
 30
0.0
 11
42.755747
 21
96.079467
 31
0.0
 12
42.422414
 22
94.079467
 32
0.0
 13
42.422414
 23
94.079467
 33
0.0
  0
SOLID
  5
5E7
  8
0
  6
BYBLOCK
 62
     0
 10
42.089081
 20
120.079467
 30
0.0
 11
42.755747
 21
120.079467
 31
0.0
 12
42.422414
 22
122.079467
 32
0.0
 13
42.422414
 23
122.079467
 33
0.0
  0
TEXT
  8
0
  40
2
  5
726
  62
0
  72
0
  71
0
 10
36.4224
 20
106.599
 30
0.000000
  1
28
  0
POINT
  5
5E9
  8
DEFPOINTS
  6
BYBLOCK
 62
     0
 10
53.09393
 20
94.079467
 30
0.0
  0
POINT
  5
5EA
  8
DEFPOINTS
  6
BYBLOCK
 62
     0
 10
53.09393
 20
122.079467
 30
0.0
  0
POINT
  5
5EB
  8
DEFPOINTS
  6
BYBLOCK
 62
     0
 10
42.422414
 20
122.079467
 30
0.0
  0
ENDBLK
  5
5EC
  8
0
  0
BLOCK
  8
0
  2
*D9
 70
     1
 10
0.0
 20
0.0
 30
0.0
  3
*D9
  1

  0
LINE
  5
5FC
  8
0
  6
BYBLOCK
 62
     0
 10
81.29071
 20
69.386781
 30
0.0
 11
79.10616
 21
52.536306
 31
0.0
  0
LINE
  5
5FD
  8
0
  6
BYBLOCK
 62
     0
 10
77.079939
 20
36.907102
 30
0.0
 11
76.822805
 21
34.9237
 31
0.0
  0
TEXT
  8
0
  40
2
  5
727
  62
0
  72
0
  71
0
 10
74.6216
 20
60.8148
 30
0.000000
  1
%%c11.76
  0
LINE
  5
5FF
  8
0
  6
BYBLOCK
 62
     0
 10
77.337074
 20
38.890504
 30
0.0
 11
78.849025
 21
50.552905
 31
0.0
  0
SOLID
  5
600
  8
0
  6
BYBLOCK
 62
     0
 10
76.749372
 20
36.949958
 30
0.0
 11
77.410506
 21
36.864246
 31
0.0
 12
77.337074
 22
38.890504
 32
0.0
 13
77.337074
 23
38.890504
 33
0.0
  0
SOLID
  5
601
  8
0
  6
BYBLOCK
 62
     0
 10
78.775593
 20
52.579162
 30
0.0
 11
79.436727
 21
52.493451
 31
0.0
 12
78.849025
 22
50.552905
 32
0.0
 13
78.849025
 23
50.552905
 33
0.0
  0
POINT
  5
602
  8
DEFPOINTS
  6
BYBLOCK
 62
     0
 10
78.849025
 20
50.552905
 30
0.0
  0
POINT
  5
603
  8
DEFPOINTS
  6
BYBLOCK
 62
     0
 10
77.337074
 20
38.890504
 30
0.0
  0
ENDBLK
  5
604
  8
0
  0
BLOCK
  8
0
  2
*D10
 70
     1
 10
0.0
 20
0.0
 30
0.0
  3
*D10
  1

  0
LINE
  5
608
  8
0
  6
BYBLOCK
 62
     0
 10
94.211698
 20
65.655053
 30
0.0
 11
92.218015
 21
50.976046
 31
0.0
  0
LINE
  5
609
  8
0
  6
BYBLOCK
 62
     0
 10
91.006768
 20
42.057925
 30
0.0
 11
90.737602
 21
40.07612
 31
0.0
  0
TEXT
  8
0
  40
2
  5
728
  62
0
  72
0
  71
0
 10
87.8710
 20
59.7418
 30
0.000000
  1
%%c5
  0
LINE
  5
60B
  8
0
  6
BYBLOCK
 62
     0
 10
91.275934
 20
44.03973
 30
0.0
 11
91.948849
 21
48.994241
 31
0.0
  0
SOLID
  5
60C
  8
0
  6
BYBLOCK
 62
     0
 10
90.676467
 20
42.102786
 30
0.0
 11
91.337069
 21
42.013064
 31
0.0
 12
91.275934
 22
44.03973
 32
0.0
 13
91.275934
 23
44.03973
 33
0.0
  0
SOLID
  5
60D
  8
0
  6
BYBLOCK
 62
     0
 10
91.887714
 20
51.020907
 30
0.0
 11
92.548316
 21
50.931185
 31
0.0
 12
91.948849
 22
48.994241
 32
0.0
 13
91.948849
 23
48.994241
 33
0.0
  0
POINT
  5
60E
  8
DEFPOINTS
  6
BYBLOCK
 62
     0
 10
91.948849
 20
48.994241
 30
0.0
  0
POINT
  5
60F
  8
DEFPOINTS
  6
BYBLOCK
 62
     0
 10
91.275934
 20
44.03973
 30
0.0
  0
ENDBLK
  5
610
  8
0
  0
BLOCK
  8
0
  2
*D11
 70
     1
 10
0.0
 20
0.0
 30
0.0
  3
*D11
  1

  0
LINE
  5
637
  8
0
  6
BYBLOCK
 62
     0
 10
128.625405
 20
107.079467
 30
0.0
 11
119.729079
 21
107.079467
 31
0.0
  0
LINE
  5
638
  8
0
  6
BYBLOCK
 62
     0
 10
128.625405
 20
92.079467
 30
0.0
 11
119.729079
 21
92.079467
 31
0.0
  0
LINE
  5
639
  8
0
  6
BYBLOCK
 62
     0
 10
120.979079
 20
105.079467
 30
0.0
 11
120.979079
 21
94.079467
 31
0.0
  0
SOLID
  5
63A
  8
0
  6
BYBLOCK
 62
     0
 10
120.645746
 20
105.079467
 30
0.0
 11
121.312412
 21
105.079467
 31
0.0
 12
120.979079
 22
107.079467
 32
0.0
 13
120.979079
 23
107.079467
 33
0.0
  0
SOLID
  5
63B
  8
0
  6
BYBLOCK
 62
     0
 10
120.645746
 20
94.079467
 30
0.0
 11
121.312412
 21
94.079467
 31
0.0
 12
120.979079
 22
92.079467
 32
0.0
 13
120.979079
 23
92.079467
 33
0.0
  0
TEXT
  8
0
  40
2
  5
729
  62
0
  72
0
  71
0
 10
114.979
 20
96.0395
 30
0.000000
  1
15
  0
POINT
  5
63D
  8
DEFPOINTS
  6
BYBLOCK
 62
     0
 10
129.250405
 20
107.079467
 30
0.0
  0
POINT
  5
63E
  8
DEFPOINTS
  6
BYBLOCK
 62
     0
 10
129.250405
 20
92.079467
 30
0.0
  0
POINT
  5
63F
  8
DEFPOINTS
  6
BYBLOCK
 62
     0
 10
120.979079
 20
92.079467
 30
0.0
  0
ENDBLK
  5
640
  8
0
  0
BLOCK
  8
0
  2
*D12
 70
     1
 10
0.0
 20
0.0
 30
0.0
  3
*D12
  1

  0
LINE
  5
66B
  8
0
  6
BYBLOCK
 62
     0
 10
69.780888
 20
94.704467
 30
0.0
 11
69.780888
 21
97.484948
 31
0.0
  0
LINE
  5
66C
  8
0
  6
BYBLOCK
 62
     0
 10
86.405211
 20
94.704467
 30
0.0
 11
86.405211
 21
97.484948
 31
0.0
  0
LINE
  5
66D
  8
0
  6
BYBLOCK
 62
     0
 10
71.780888
 20
96.234948
 30
0.0
 11
84.405211
 21
96.234948
 31
0.0
  0
SOLID
  5
66E
  8
0
  6
BYBLOCK
 62
     0
 10
71.780888
 20
96.568281
 30
0.0
 11
71.780888
 21
95.901615
 31
0.0
 12
69.780888
 22
96.234948
 32
0.0
 13
69.780888
 23
96.234948
 33
0.0
  0
SOLID
  5
66F
  8
0
  6
BYBLOCK
 62
     0
 10
84.405211
 20
96.568281
 30
0.0
 11
84.405211
 21
95.901615
 31
0.0
 12
86.405211
 22
96.234948
 32
0.0
 13
86.405211
 23
96.234948
 33
0.0
  0
TEXT
  8
0
  40
2
  5
72A
  62
0
  72
0
  71
0
 10
75.7385
 20
94.6949
 30
0.000000
  1
16.62
  0
POINT
  5
671
  8
DEFPOINTS
  6
BYBLOCK
 62
     0
 10
69.780888
 20
94.079467
 30
0.0
  0
POINT
  5
672
  8
DEFPOINTS
  6
BYBLOCK
 62
     0
 10
86.405211
 20
94.079467
 30
0.0
  0
POINT
  5
673
  8
DEFPOINTS
  6
BYBLOCK
 62
     0
 10
86.405211
 20
96.234948
 30
0.0
  0
ENDBLK
  5
674
  8
0
  0
BLOCK
  8
0
  2
*D13
 70
     1
 10
0.0
 20
0.0
 30
0.0
  3
*D13
  1

  0
LINE
  5
677
  8
0
  6
BYBLOCK
 62
     0
 10
98.598475
 20
100.936736
 30
0.0
 11
98.598475
 21
85.063471
 31
0.0
  0
LINE
  5
678
  8
0
  6
BYBLOCK
 62
     0
 10
57.59393
 20
100.954467
 30
0.0
 11
57.59393
 21
85.063471
 31
0.0
  0
LINE
  5
679
  8
0
  6
BYBLOCK
 62
     0
 10
96.598475
 20
86.313471
 30
0.0
 11
59.59393
 21
86.313471
 31
0.0
  0
SOLID
  5
67A
  8
0
  6
BYBLOCK
 62
     0
 10
96.598475
 20
86.646805
 30
0.0
 11
96.598475
 21
85.980138
 31
0.0
 12
98.598475
 22
86.313471
 32
0.0
 13
98.598475
 23
86.313471
 33
0.0
  0
SOLID
  5
67B
  8
0
  6
BYBLOCK
 62
     0
 10
59.59393
 20
86.646805
 30
0.0
 11
59.59393
 21
85.980138
 31
0.0
 12
57.59393
 22
86.313471
 32
0.0
 13
57.59393
 23
86.313471
 33
0.0
  0
TEXT
  8
0
  40
2
  5
72B
  62
0
  72
0
  71
0
 10
74.1902
 20
84.7735
 30
0.000000
  1
41.01
  0
POINT
  5
67D
  8
DEFPOINTS
  6
BYBLOCK
 62
     0
 10
98.598475
 20
101.561736
 30
0.0
  0
POINT
  5
67E
  8
DEFPOINTS
  6
BYBLOCK
 62
     0
 10
57.59393
 20
101.579467
 30
0.0
  0
POINT
  5
67F
  8
DEFPOINTS
  6
BYBLOCK
 62
     0
 10
57.59393
 20
86.313471
 30
0.0
  0
ENDBLK
  5
680
  8
0
  0
BLOCK
  8
0
  2
*D14
 70
     1
 10
0.0
 20
0.0
 30
0.0
  3
*D14
  1

  0
LINE
  5
6A6
  8
0
  6
BYBLOCK
 62
     0
 10
64.59393
 20
114.204467
 30
0.0
 11
64.59393
 21
130.832719
 31
0.0
  0
LINE
  5
6A7
  8
0
  6
BYBLOCK
 62
     0
 10
91.612391
 20
114.194324
 30
0.0
 11
91.612391
 21
130.832719
 31
0.0
  0
LINE
  5
6A8
  8
0
  6
BYBLOCK
 62
     0
 10
66.59393
 20
129.582719
 30
0.0
 11
89.612391
 21
129.582719
 31
0.0
  0
SOLID
  5
6A9
  8
0
  6
BYBLOCK
 62
     0
 10
66.59393
 20
129.916052
 30
0.0
 11
66.59393
 21
129.249386
 31
0.0
 12
64.59393
 22
129.582719
 32
0.0
 13
64.59393
 23
129.582719
 33
0.0
  0
SOLID
  5
6AA
  8
0
  6
BYBLOCK
 62
     0
 10
89.612391
 20
129.916052
 30
0.0
 11
89.612391
 21
129.249386
 31
0.0
 12
91.612391
 22
129.582719
 32
0.0
 13
91.612391
 23
129.582719
 33
0.0
  0
TEXT
  8
0
  40
2
  5
72C
  62
0
  72
0
  71
0
 10
74.3348
 20
128.043
 30
0.000000
  1
27.02
  0
POINT
  5
6AC
  8
DEFPOINTS
  6
BYBLOCK
 62
     0
 10
64.59393
 20
113.579467
 30
0.0
  0
POINT
  5
6AD
  8
DEFPOINTS
  6
BYBLOCK
 62
     0
 10
91.612391
 20
113.569324
 30
0.0
  0
POINT
  5
6AE
  8
DEFPOINTS
  6
BYBLOCK
 62
     0
 10
91.612391
 20
129.582719
 30
0.0
  0
ENDBLK
  5
6AF
  8
0
  0
BLOCK
  8
0
  2
*D15
 70
     1
 10
0.0
 20
0.0
 30
0.0
  3
*D15
  1

  0
LINE
  5
6BD
  8
0
  6
BYBLOCK
 62
     0
 10
92.237391
 20
113.569324
 30
0.0
 11
110.329605
 21
113.569324
 31
0.0
  0
LINE
  5
6BE
  8
0
  6
BYBLOCK
 62
     0
 10
103.717169
 20
94.079467
 30
0.0
 11
110.329605
 21
94.079467
 31
0.0
  0
LINE
  5
6BF
  8
0
  6
BYBLOCK
 62
     0
 10
109.079605
 20
111.569324
 30
0.0
 11
109.079605
 21
96.079467
 31
0.0
  0
SOLID
  5
6C0
  8
0
  6
BYBLOCK
 62
     0
 10
108.746271
 20
111.569324
 30
0.0
 11
109.412938
 21
111.569324
 31
0.0
 12
109.079605
 22
113.569324
 32
0.0
 13
109.079605
 23
113.569324
 33
0.0
  0
SOLID
  5
6C1
  8
0
  6
BYBLOCK
 62
     0
 10
108.746271
 20
96.079467
 30
0.0
 11
109.412938
 21
96.079467
 31
0.0
 12
109.079605
 22
94.079467
 32
0.0
 13
109.079605
 23
94.079467
 33
0.0
  0
TEXT
  8
0
  40
2
  5
72D
  62
0
  72
0
  71
0
 10
103.080
 20
100.200
 30
0.000000
  1
19.49
  0
POINT
  5
6C3
  8
DEFPOINTS
  6
BYBLOCK
 62
     0
 10
91.612391
 20
113.569324
 30
0.0
  0
POINT
  5
6C4
  8
DEFPOINTS
  6
BYBLOCK
 62
     0
 10
103.092169
 20
94.079467
 30
0.0
  0
POINT
  5
6C5
  8
DEFPOINTS
  6
BYBLOCK
 62
     0
 10
109.079605
 20
94.079467
 30
0.0
  0
ENDBLK
  5
6C6
  8
0
  0
BLOCK
  8
0
  2
*D16
 70
     1
 10
0.0
 20
0.0
 30
0.0
  3
*D16
  1

  0
LINE
  5
6CA
  8
0
  6
BYBLOCK
 62
     0
 10
56.96893
 20
101.579467
 30
0.0
 11
47.816173
 21
101.579467
 31
0.0
  0
LINE
  5
6CB
  8
0
  6
BYBLOCK
 62
     0
 10
52.46893
 20
94.079467
 30
0.0
 11
47.816173
 21
94.079467
 31
0.0
  0
LINE
  5
6CC
  8
0
  6
BYBLOCK
 62
     0
 10
49.066173
 20
99.579467
 30
0.0
 11
49.066173
 21
96.079467
 31
0.0
  0
SOLID
  5
6CD
  8
0
  6
BYBLOCK
 62
     0
 10
48.732839
 20
99.579467
 30
0.0
 11
49.399506
 21
99.579467
 31
0.0
 12
49.066173
 22
101.579467
 32
0.0
 13
49.066173
 23
101.579467
 33
0.0
  0
SOLID
  5
6CE
  8
0
  6
BYBLOCK
 62
     0
 10
48.732839
 20
96.079467
 30
0.0
 11
49.399506
 21
96.079467
 31
0.0
 12
49.066173
 22
94.079467
 32
0.0
 13
49.066173
 23
94.079467
 33
0.0
  0
TEXT
  8
0
  40
2
  5
72E
  62
0
  72
0
  71
0
 10
43.0662
 20
94.2895
 30
0.000000
  1
7.5
  0
POINT
  5
6D0
  8
DEFPOINTS
  6
BYBLOCK
 62
     0
 10
57.59393
 20
101.579467
 30
0.0
  0
POINT
  5
6D1
  8
DEFPOINTS
  6
BYBLOCK
 62
     0
 10
53.09393
 20
94.079467
 30
0.0
  0
POINT
  5
6D2
  8
DEFPOINTS
  6
BYBLOCK
 62
     0
 10
49.066173
 20
94.079467
 30
0.0
  0
ENDBLK
  5
6D3
  8
0
  0
BLOCK
  8
0
  2
*D17
 70
     1
 10
0.0
 20
0.0
 30
0.0
  3
*D17
  1

  0
LINE
  5
6D7
  8
0
  6
BYBLOCK
 62
     0
 10
52.46893
 20
80.401284
 30
0.0
 11
41.433678
 21
80.401284
 31
0.0
  0
LINE
  5
6D8
  8
0
  6
BYBLOCK
 62
     0
 10
52.46893
 20
73.401284
 30
0.0
 11
41.433678
 21
73.401284
 31
0.0
  0
LINE
  5
6D9
  8
0
  6
BYBLOCK
 62
     0
 10
42.683678
 20
78.401284
 30
0.0
 11
42.683678
 21
75.401284
 31
0.0
  0
SOLID
  5
6DA
  8
0
  6
BYBLOCK
 62
     0
 10
42.350345
 20
78.401284
 30
0.0
 11
43.017011
 21
78.401284
 31
0.0
 12
42.683678
 22
80.401284
 32
0.0
 13
42.683678
 23
80.401284
 33
0.0
  0
SOLID
  5
6DB
  8
0
  6
BYBLOCK
 62
     0
 10
42.350345
 20
75.401284
 30
0.0
 11
43.017011
 21
75.401284
 31
0.0
 12
42.683678
 22
73.401284
 32
0.0
 13
42.683678
 23
73.401284
 33
0.0
  0
TEXT
  8
0
  40
2
  5
72F
  62
0
  72
0
  71
0
 10
36.6837
 20
73.2781
 30
0.000000
  1
7
  0
POINT
  5
6DD
  8
DEFPOINTS
  6
BYBLOCK
 62
     0
 10
53.09393
 20
80.401284
 30
0.0
  0
POINT
  5
6DE
  8
DEFPOINTS
  6
BYBLOCK
 62
     0
 10
53.09393
 20
73.401284
 30
0.0
  0
POINT
  5
6DF
  8
DEFPOINTS
  6
BYBLOCK
 62
     0
 10
42.683678
 20
73.401284
 30
0.0
  0
ENDBLK
  5
6E0
  8
0
  0
BLOCK
  8
0
  2
*D18
 70
     1
 10
0.0
 20
0.0
 30
0.0
  3
*D18
  1

  0
LINE
  5
6E4
  8
0
  6
BYBLOCK
 62
     0
 10
52.46893
 20
57.026985
 30
0.0
 11
46.083782
 21
57.026985
 31
0.0
  0
LINE
  5
6E5
  8
0
  6
BYBLOCK
 62
     0
 10
52.46893
 20
40.027604
 30
0.0
 11
46.083782
 21
40.027604
 31
0.0
  0
LINE
  5
6E6
  8
0
  6
BYBLOCK
 62
     0
 10
47.333782
 20
55.026985
 30
0.0
 11
47.333782
 21
42.027604
 31
0.0
  0
SOLID
  5
6E7
  8
0
  6
BYBLOCK
 62
     0
 10
47.000449
 20
55.026985
 30
0.0
 11
47.667115
 21
55.026985
 31
0.0
 12
47.333782
 22
57.026985
 32
0.0
 13
47.333782
 23
57.026985
 33
0.0
  0
SOLID
  5
6E8
  8
0
  6
BYBLOCK
 62
     0
 10
47.000449
 20
42.027604
 30
0.0
 11
47.667115
 21
42.027604
 31
0.0
 12
47.333782
 22
40.027604
 32
0.0
 13
47.333782
 23
40.027604
 33
0.0
  0
TEXT
  8
0
  40
2
  5
730
  62
0
  72
0
  71
0
 10
41.3338
 20
45.9174
 30
0.000000
  1
17
  0
POINT
  5
6EA
  8
DEFPOINTS
  6
BYBLOCK
 62
     0
 10
53.09393
 20
57.026985
 30
0.0
  0
POINT
  5
6EB
  8
DEFPOINTS
  6
BYBLOCK
 62
     0
 10
53.09393
 20
40.027604
 30
0.0
  0
POINT
  5
6EC
  8
DEFPOINTS
  6
BYBLOCK
 62
     0
 10
47.333782
 20
40.027604
 30
0.0
  0
ENDBLK
  5
6ED
  8
0
  0
BLOCK
  8
0
  2
*D19
 70
     1
 10
0.0
 20
0.0
 30
0.0
  3
*D19
  1

  0
LINE
  5
6F1
  8
0
  6
BYBLOCK
 62
     0
 10
66.46805
 20
37.526985
 30
0.0
 11
40.419627
 21
37.526985
 31
0.0
  0
LINE
  5
6F2
  8
0
  6
BYBLOCK
 62
     0
 10
66.46805
 20
40.027604
 30
0.0
 11
40.419627
 21
40.027604
 31
0.0
  0
LINE
  5
6F3
  8
0
  6
BYBLOCK
 62
     0
 10
41.669627
 20
35.526985
 30
0.0
 11
41.669627
 21
33.526985
 31
0.0
  0
LINE
  5
6F4
  8
0
  6
BYBLOCK
 62
     0
 10
41.669627
 20
42.027604
 30
0.0
 11
41.669627
 21
44.027604
 31
0.0
  0
LINE
  5
6F5
  8
0
  6
BYBLOCK
 62
     0
 10
41.669627
 20
37.526985
 30
0.0
 11
41.669627
 21
40.027604
 31
0.0
  0
SOLID
  5
6F6
  8
0
  6
BYBLOCK
 62
     0
 10
41.336294
 20
35.526985
 30
0.0
 11
42.002961
 21
35.526985
 31
0.0
 12
41.669627
 22
37.526985
 32
0.0
 13
41.669627
 23
37.526985
 33
0.0
  0
SOLID
  5
6F7
  8
0
  6
BYBLOCK
 62
     0
 10
41.336294
 20
42.027604
 30
0.0
 11
42.002961
 21
42.027604
 31
0.0
 12
41.669627
 22
40.027604
 32
0.0
 13
41.669627
 23
40.027604
 33
0.0
  0
TEXT
  8
0
  40
2
  5
731
  62
0
  72
0
  71
0
 10
35.6696
 20
35.2373
 30
0.000000
  1
2.5
  0
POINT
  5
6F9
  8
DEFPOINTS
  6
BYBLOCK
 62
     0
 10
67.09305
 20
37.526985
 30
0.0
  0
POINT
  5
6FA
  8
DEFPOINTS
  6
BYBLOCK
 62
     0
 10
67.09305
 20
40.027604
 30
0.0
  0
POINT
  5
6FB
  8
DEFPOINTS
  6
BYBLOCK
 62
     0
 10
41.669627
 20
40.027604
 30
0.0
  0
ENDBLK
  5
6FC
  8
0
  0
ENDSEC
  0
SECTION
  2
ENTITIES
  0
LINE
  5
F9
  8
0
 10
70.59393
 20
94.079467
 30
0.0
 11
85.592169
 21
94.079467
 31
0.0
  0
ARC
  5
10B
  8
0
 10
136.749525
 20
64.284186
 30
0.0
 40
3.86
 50
0.0
 51
270.0
  0
CIRCLE
  5
10C
  8
0
 10
136.749525
 20
64.284186
 30
0.0
 40
5.38
  0
DIMENSION
  5
16F
  8
MATEN
  2
*D0
 10
140.189969
 20
60.773035
 30
0.0
 11
123.816243
 21
80.45776
 31
0.0
 12
58.656475
 22
20.880938
 32
0.0
 70
   131
 15
133.30908
 25
69.045337
 35
0.0
 40
0.0
1001
ACAD
1000
DSTYLE
1002
{
1070
    78
1070
     8
1070
   288
1070
     1
1070
   140
1040
2.0
1070
    74
1070
     0
1070
   172
1070
     1
1070
    73
1070
     0
1070
    77
1070
     1
1070
   147
1040
1.0
1070
    42
1040
0.625
1070
    44
1040
1.25
1070
    43
1040
3.75
1070
   271
1070
     2
1070
   141
1040
1.0
1070
   275
1070
     1
1070
    41
1040
2.0
1070
   273
1070
     8
1070
   274
1070
     4
1070
   143
1040
0.0394
1070
   171
1070
     4
1002
}
  0
LINE
  5
1CE
  8
0
 10
128.437363
 20
57.079467
 30
0.0
 11
145.061686
 21
57.079467
 31
0.0
  0
LINE
  5
1CF
  8
0
 10
145.061686
 20
57.079467
 30
0.0
 11
145.061686
 21
71.488905
 31
0.0
  0
LINE
  5
1D1
  8
0
 10
128.437363
 20
57.079467
 30
0.0
 11
128.437363
 21
71.488905
 31
0.0
  0
ARC
  5
1D3
  8
0
 10
136.749525
 20
64.284186
 30
0.0
 40
11.0
 50
40.917712
 51
139.082288
  0
DIMENSION
  5
1E0
  8
MATEN
  2
*D1
 10
154.02245
 20
57.079467
 30
0.0
 11
154.02245
 21
63.412801
 31
0.0
 12
58.031475
 22
20.255938
 32
0.0
 70
   128
 13
144.436686
 23
71.488905
 33
0.0
 14
144.436686
 24
57.079467
 34
0.0
 50
90.0
1001
ACAD
1000
DSTYLE
1002
{
1070
    78
1070
     8
1070
   288
1070
     1
1070
   140
1040
2.0
1070
    74
1070
     0
1070
   172
1070
     1
1070
    73
1070
     0
1070
    77
1070
     1
1070
   147
1040
1.0
1070
    42
1040
0.625
1070
    44
1040
1.25
1070
    43
1040
3.75
1070
   271
1070
     2
1070
   141
1040
1.0
1070
   275
1070
     1
1070
    41
1040
2.0
1070
   273
1070
     8
1070
   274
1070
     4
1070
   143
1040
0.0394
1070
   171
1070
     4
1002
}
  0
DIMENSION
  5
1ED
  8
MATEN
  2
*D2
 10
145.061686
 20
48.769169
 30
0.0
 11
138.395019
 21
48.769169
 31
0.0
 12
58.656475
 22
20.880938
 32
0.0
 70
   128
 13
128.437363
 23
57.704467
 33
0.0
 14
145.061686
 24
57.704467
 34
0.0
1001
ACAD
1000
DSTYLE
1002
{
1070
    78
1070
     8
1070
   288
1070
     1
1070
   140
1040
2.0
1070
    74
1070
     0
1070
   172
1070
     1
1070
    73
1070
     0
1070
    77
1070
     1
1070
   147
1040
1.0
1070
    42
1040
0.625
1070
    44
1040
1.25
1070
    43
1040
3.75
1070
   271
1070
     2
1070
   141
1040
1.0
1070
   275
1070
     1
1070
    41
1040
2.0
1070
   273
1070
     8
1070
   274
1070
     4
1070
   143
1040
0.0394
1070
   171
1070
     4
1002
}
  0
DIMENSION
  5
206
  8
MATEN
  2
*D3
 10
140.858748
 20
54.705545
 30
0.0
 11
129.776298
 21
82.224455
 31
0.0
 12
58.656475
 22
20.880938
 32
0.0
 70
   131
 15
132.640302
 25
75.112827
 35
0.0
 40
0.0
1001
ACAD
1000
DSTYLE
1002
{
1070
    78
1070
     8
1070
   288
1070
     1
1070
   140
1040
2.0
1070
    74
1070
     0
1070
   172
1070
     1
1070
    73
1070
     0
1070
    77
1070
     1
1070
   147
1040
1.0
1070
    42
1040
0.625
1070
    44
1040
1.25
1070
    43
1040
3.75
1070
   271
1070
     2
1070
   141
1040
1.0
1070
   275
1070
     1
1070
    41
1040
2.0
1070
   273
1070
     8
1070
   274
1070
     4
1070
   143
1040
0.0394
1070
   171
1070
     4
1002
}
  0
LINE
  5
20D
  8
0
 10
53.09393
 20
122.079467
 30
0.0
 11
103.092169
 21
122.079467
 31
0.0
  0
DIMENSION
  5
224
  8
MATEN
  2
*D4
 10
168.682846
 20
57.079467
 30
0.0
 11
168.682846
 21
65.509729
 31
0.0
 12
58.031475
 22
20.255938
 32
0.0
 70
   128
 13
135.88541
 23
75.281587
 33
0.0
 14
144.436686
 24
57.079467
 34
0.0
 50
90.0
1001
ACAD
1000
DSTYLE
1002
{
1070
    78
1070
     8
1070
   288
1070
     1
1070
   140
1040
2.0
1070
    74
1070
     0
1070
   172
1070
     1
1070
    73
1070
     0
1070
    77
1070
     1
1070
   147
1040
1.0
1070
    42
1040
0.625
1070
    44
1040
1.25
1070
    43
1040
3.75
1070
   271
1070
     2
1070
   141
1040
1.0
1070
   275
1070
     1
1070
    41
1040
2.0
1070
   273
1070
     8
1070
   274
1070
     4
1070
   143
1040
0.0394
1070
   171
1070
     4
1002
}
  0
LINE
  5
285
  8
0
 10
53.09393
 20
57.026985
 30
0.0
 11
103.092169
 21
57.026985
 31
0.0
  0
LINE
  5
28A
  8
0
  6
ACAD_ISO02W100
 10
54.59393
 20
57.026985
 30
0.0
 11
54.59393
 21
40.027604
 31
0.0
  0
LINE
  5
28B
  8
0
  6
ACAD_ISO02W100
 10
60.59393
 20
57.026985
 30
0.0
 11
60.59393
 21
40.027604
 31
0.0
  0
LINE
  5
28C
  8
0
  6
ACAD_ISO02W100
 10
95.598475
 20
57.026985
 30
0.0
 11
95.598475
 21
40.027604
 31
0.0
  0
LINE
  5
28D
  8
0
  6
ACAD_ISO02W100
 10
101.598475
 20
57.026985
 30
0.0
 11
101.598475
 21
40.027604
 31
0.0
  0
LINE
  5
29B
  8
0
  6
ACAD_ISO02W100
 10
86.405211
 20
37.526985
 30
0.0
 11
86.405211
 21
57.026985
 31
0.0
  0
LINE
  5
29C
  8
0
  6
ACAD_ISO02W100
 10
69.780888
 20
37.526985
 30
0.0
 11
69.780888
 21
57.026985
 31
0.0
  0
LINE
  5
2B7
  8
0
  6
ACAD_ISO02W100
 10
72.21305
 20
109.079467
 30
0.0
 11
72.21305
 21
122.079467
 31
0.0
  0
LINE
  5
2B8
  8
0
  6
ACAD_ISO02W100
 10
83.97305
 20
109.079467
 30
0.0
 11
83.97305
 21
122.079467
 31
0.0
  0
DIMENSION
  5
2D1
  8
MATEN
  2
*D5
 10
83.97305
 20
124.942066
 30
0.0
 11
78.09305
 21
124.942066
 31
0.0
 70
   128
  1
%%c<>
 13
72.21305
 23
122.079467
 33
0.0
 14
83.97305
 24
122.079467
 34
0.0
1001
ACAD
1000
DSTYLE
1002
{
1070
    78
1070
     8
1070
   288
1070
     1
1070
   140
1040
2.0
1070
    74
1070
     0
1070
   172
1070
     1
1070
    73
1070
     0
1070
    77
1070
     1
1070
   147
1040
1.0
1070
    42
1040
0.625
1070
    44
1040
1.25
1070
    43
1040
3.75
1070
   271
1070
     2
1070
   141
1040
1.0
1070
   275
1070
     1
1070
    41
1040
2.0
1070
   273
1070
     8
1070
   274
1070
     4
1070
   143
1040
0.0394
1070
   171
1070
     4
1002
}
  0
DIMENSION
  5
31E
  8
MATEN
  2
*D6
 10
134.763003
 20
59.284373
 30
0.0
 11
153.250429
 21
105.814782
 31
0.0
 70
   131
  1
\Fisocp.shx;Trapezium draad
 15
138.736047
 25
69.283999
 35
0.0
 40
0.0
1001
ACAD
1000
DSTYLE
1002
{
1070
    78
1070
     8
1070
   288
1070
     1
1070
   140
1040
2.0
1070
    74
1070
     0
1070
   172
1070
     1
1070
    73
1070
     0
1070
    77
1070
     1
1070
   147
1040
1.0
1070
    42
1040
0.625
1070
    44
1040
1.25
1070
    43
1040
3.75
1070
   271
1070
     2
1070
   141
1040
1.0
1070
   275
1070
     1
1070
    41
1040
2.0
1070
   273
1070
     8
1070
   274
1070
     4
1070
   143
1040
0.0394
1070
   171
1070
     4
1002
}
  0
LINE
  5
3AA
  8
0
 10
129.250405
 20
107.079467
 30
0.0
 11
144.248644
 21
107.079467
 31
0.0
  0
LINE
  5
3AB
  8
0
 10
129.250405
 20
92.079467
 30
0.0
 11
144.248644
 21
92.079467
 31
0.0
  0
LINE
  5
3AC
  8
0
  6
ACAD_ISO02W100
 10
131.369525
 20
92.079467
 30
0.0
 11
131.369525
 21
107.079467
 31
0.0
  0
LINE
  5
3AD
  8
0
  6
ACAD_ISO02W100
 10
142.129525
 20
92.079467
 30
0.0
 11
142.129525
 21
107.079467
 31
0.0
  0
LINE
  5
3AE
  8
0
  6
ACAD_ISO02W100
 10
140.609525
 20
92.079467
 30
0.0
 11
140.609525
 21
107.079467
 31
0.0
  0
LINE
  5
3AF
  8
0
  6
ACAD_ISO02W100
 10
132.889525
 20
92.079467
 30
0.0
 11
132.889525
 21
107.079467
 31
0.0
  0
LINE
  5
3B0
  8
0
 10
144.248644
 20
92.079467
 30
0.0
 11
144.248644
 21
107.079467
 31
0.0
  0
LINE
  5
3B1
  8
0
 10
129.250405
 20
92.079467
 30
0.0
 11
129.250405
 21
107.079467
 31
0.0
  0
LINE
  5
3B4
  8
0
 10
53.09393
 20
80.401284
 30
0.0
 11
103.092169
 21
80.401284
 31
0.0
  0
LINE
  5
3B5
  8
0
 10
103.092169
 20
73.401284
 30
0.0
 11
53.09393
 21
73.401284
 31
0.0
  0
LINE
  5
3D8
  8
0
  6
ACAD_ISO02W100
 10
62.09393
 20
94.079467
 30
0.0
 11
62.09393
 21
111.579467
 31
0.0
  0
LINE
  5
3D9
  8
0
  6
ACAD_ISO02W100
 10
67.09393
 20
94.079467
 30
0.0
 11
67.09393
 21
111.579467
 31
0.0
  0
LINE
  5
3DA
  8
0
  6
ACAD_ISO02W100
 10
94.092139
 20
80.401284
 30
0.0
 11
94.092139
 21
73.401284
 31
0.0
  0
LINE
  5
3DB
  8
0
  6
ACAD_ISO02W100
 10
89.092139
 20
80.401284
 30
0.0
 11
89.092139
 21
73.401284
 31
0.0
  0
LINE
  5
3DC
  8
0
  6
ACAD_ISO02W100
 10
67.09393
 20
80.401284
 30
0.0
 11
67.09393
 21
73.401284
 31
0.0
  0
LINE
  5
3DD
  8
0
  6
ACAD_ISO02W100
 10
62.09393
 20
80.401284
 30
0.0
 11
62.09393
 21
73.401284
 31
0.0
  0
LINE
  5
3E5
  8
0
  6
ACAD_ISO02W100
 10
89.092139
 20
111.573525
 30
0.0
 11
91.582867
 21
113.569324
 31
0.0
  0
LINE
  5
3E6
  8
0
  6
ACAD_ISO02W100
 10
94.092125
 20
111.565087
 30
0.0
 11
91.582867
 21
113.569324
 31
0.0
  0
LINE
  5
3E7
  8
0
  6
ACAD_ISO02W100
 10
67.09393
 20
111.579467
 30
0.0
 11
64.59393
 21
113.579467
 31
0.0
  0
LINE
  5
3E8
  8
0
  6
ACAD_ISO02W100
 10
62.09393
 20
111.579467
 30
0.0
 11
64.59393
 21
113.579467
 31
0.0
  0
LINE
  5
3EB
  8
0
  6
ACAD_ISO02W100
 10
67.09393
 20
111.579467
 30
0.0
 11
62.09393
 21
111.579467
 31
0.0
  0
LINE
  5
458
  8
0
  6
ACAD_ISO02W100
 10
72.21305
 20
80.401284
 30
0.0
 11
72.21305
 21
73.401284
 31
0.0
  0
LINE
  5
459
  8
0
  6
ACAD_ISO02W100
 10
83.97305
 20
80.401284
 30
0.0
 11
83.97305
 21
73.401284
 31
0.0
  0
CIRCLE
  5
45B
  8
0
 10
78.09305
 20
44.721704
 30
0.0
 40
5.88
  0
CIRCLE
  5
478
  8
0
 10
64.59393
 20
46.516985
 30
0.0
 40
2.5
  0
CIRCLE
  5
479
  8
0
 10
91.612391
 20
46.516985
 30
0.0
 40
2.5
  0
LINE
  5
49E
  8
0
 10
103.092169
 20
94.079467
 30
0.0
 11
53.09393
 21
94.079467
 31
0.0
  0
LINE
  5
514
  8
0
 10
103.092169
 20
40.027604
 30
0.0
 11
89.09305
 21
40.027604
 31
0.0
  0
LINE
  5
518
  8
0
 10
89.09305
 20
37.526985
 30
0.0
 11
67.09305
 21
37.526985
 31
0.0
  0
LINE
  5
519
  8
0
 10
67.09305
 20
37.526985
 30
0.0
 11
67.09305
 21
40.027604
 31
0.0
  0
LINE
  5
51A
  8
0
 10
89.09305
 20
37.526985
 30
0.0
 11
89.09305
 21
40.027604
 31
0.0
  0
LINE
  5
51B
  8
0
 10
67.09305
 20
40.027604
 30
0.0
 11
53.09393
 21
40.027604
 31
0.0
  0
LINE
  5
5BF
  8
0
 10
103.092169
 20
122.079467
 30
0.0
 11
103.092169
 21
94.079467
 31
0.0
  0
LINE
  5
5C0
  8
0
 10
53.09393
 20
122.079467
 30
0.0
 11
53.09393
 21
94.079467
 31
0.0
  0
LINE
  5
5D0
  8
0
 10
103.092169
 20
57.026985
 30
0.0
 11
103.092169
 21
40.027604
 31
0.0
  0
LINE
  5
5D1
  8
0
 10
53.09393
 20
57.026985
 30
0.0
 11
53.09393
 21
40.027604
 31
0.0
  0
LINE
  5
5D2
  8
0
 10
53.09393
 20
73.401284
 30
0.0
 11
53.09393
 21
80.401284
 31
0.0
  0
LINE
  5
5D3
  8
0
 10
103.092169
 20
73.401284
 30
0.0
 11
103.092169
 21
80.401284
 31
0.0
  0
DIMENSION
  5
5E0
  8
MATEN
  2
*D7
 10
103.092169
 20
133.368621
 30
0.0
 11
77.850351
 21
133.368621
 31
0.0
 70
   128
 13
53.09393
 23
122.079467
 33
0.0
 14
103.092169
 24
122.079467
 34
0.0
1001
ACAD
1000
DSTYLE
1002
{
1070
    78
1070
     8
1070
   288
1070
     1
1070
   140
1040
2.0
1070
    74
1070
     0
1070
   172
1070
     1
1070
    73
1070
     0
1070
    77
1070
     1
1070
   147
1040
1.0
1070
    42
1040
0.625
1070
    44
1040
1.25
1070
    43
1040
3.75
1070
   271
1070
     2
1070
   141
1040
1.0
1070
   275
1070
     1
1070
    41
1040
2.0
1070
   273
1070
     8
1070
   274
1070
     4
1070
   143
1040
0.0394
1070
   171
1070
     4
1002
}
  0
DIMENSION
  5
5ED
  8
MATEN
  2
*D8
 10
42.422414
 20
122.079467
 30
0.0
 11
42.422414
 21
110.138529
 31
0.0
 70
   128
 13
53.09393
 23
94.079467
 33
0.0
 14
53.09393
 24
122.079467
 34
0.0
 50
90.0
1001
ACAD
1000
DSTYLE
1002
{
1070
    78
1070
     8
1070
   288
1070
     1
1070
   140
1040
2.0
1070
    74
1070
     0
1070
   172
1070
     1
1070
    73
1070
     0
1070
    77
1070
     1
1070
   147
1040
1.0
1070
    42
1040
0.625
1070
    44
1040
1.25
1070
    43
1040
3.75
1070
   271
1070
     2
1070
   141
1040
1.0
1070
   275
1070
     1
1070
    41
1040
2.0
1070
   273
1070
     8
1070
   274
1070
     4
1070
   143
1040
0.0394
1070
   171
1070
     4
1002
}
  0
DIMENSION
  5
605
  8
MATEN
  2
*D9
 10
77.337074
 20
38.890504
 30
0.0
 11
80.605018
 21
64.09771
 31
0.0
 70
   131
 15
78.849025
 25
50.552905
 35
0.0
 40
0.0
1001
ACAD
1000
DSTYLE
1002
{
1070
    78
1070
     8
1070
   288
1070
     1
1070
   140
1040
2.0
1070
    74
1070
     0
1070
   172
1070
     1
1070
    73
1070
     0
1070
    77
1070
     1
1070
   147
1040
1.0
1070
    42
1040
0.625
1070
    44
1040
1.25
1070
    43
1040
3.75
1070
   271
1070
     2
1070
   141
1040
1.0
1070
   275
1070
     1
1070
    41
1040
2.0
1070
   273
1070
     8
1070
   274
1070
     4
1070
   143
1040
0.0394
1070
   171
1070
     4
1002
}
  0
DIMENSION
  5
611
  8
MATEN
  2
*D10
 10
91.275934
 20
44.03973
 30
0.0
 11
93.85281
 21
63.012647
 31
0.0
 70
   131
 15
91.948849
 25
48.994241
 35
0.0
 40
0.0
1001
ACAD
1000
DSTYLE
1002
{
1070
    78
1070
     8
1070
   288
1070
     1
1070
   140
1040
2.0
1070
    74
1070
     0
1070
   172
1070
     1
1070
    73
1070
     0
1070
    77
1070
     1
1070
   147
1040
1.0
1070
    42
1040
0.625
1070
    44
1040
1.25
1070
    43
1040
3.75
1070
   271
1070
     2
1070
   141
1040
1.0
1070
   275
1070
     1
1070
    41
1040
2.0
1070
   273
1070
     8
1070
   274
1070
     4
1070
   143
1040
0.0394
1070
   171
1070
     4
1002
}
  0
CIRCLE
  5
612
  8
0
 10
57.59393
 20
101.579467
 30
0.0
 40
2.5
  0
CIRCLE
  5
613
  8
0
 10
98.598475
 20
101.561736
 30
0.0
 40
2.5
  0
DIMENSION
  5
635
  8
MATEN
  2
*D11
 10
120.979079
 20
92.079467
 30
0.0
 11
120.979079
 21
99.579467
 31
0.0
 70
   128
 13
129.250405
 23
107.079467
 33
0.0
 14
129.250405
 24
92.079467
 34
0.0
 50
90.0
1001
ACAD
1000
DSTYLE
1002
{
1070
    78
1070
     8
1070
   288
1070
     1
1070
   140
1040
2.0
1070
    74
1070
     0
1070
   172
1070
     1
1070
    73
1070
     0
1070
    77
1070
     1
1070
   147
1040
1.0
1070
    42
1040
0.625
1070
    44
1040
1.25
1070
    43
1040
3.75
1070
   271
1070
     2
1070
   141
1040
1.0
1070
   275
1070
     1
1070
    41
1040
2.0
1070
   273
1070
     8
1070
   274
1070
     4
1070
   143
1040
0.0394
1070
   171
1070
     4
1002
}
  0
DIMENSION
  5
64D
  8
MATEN
  2
*D12
 10
86.405211
 20
96.234948
 30
0.0
 11
79.738544
 21
96.234948
 31
0.0
 70
   128
 13
69.780888
 23
94.079467
 33
0.0
 14
86.405211
 24
94.079467
 34
0.0
1001
ACAD
1000
DSTYLE
1002
{
1070
    78
1070
     8
1070
   288
1070
     1
1070
   140
1040
2.0
1070
    74
1070
     0
1070
   172
1070
     1
1070
    73
1070
     0
1070
    77
1070
     1
1070
   147
1040
1.0
1070
    42
1040
0.625
1070
    44
1040
1.25
1070
    43
1040
3.75
1070
   271
1070
     2
1070
   141
1040
1.0
1070
   275
1070
     1
1070
    41
1040
2.0
1070
   273
1070
     8
1070
   274
1070
     4
1070
   143
1040
0.0394
1070
   171
1070
     4
1002
}
  0
LINE
  5
65B
  8
0
 10
69.780888
 20
109.079467
 30
0.0
 11
86.405211
 21
109.079467
 31
0.0
  0
LINE
  5
65C
  8
0
 10
86.405211
 20
109.079467
 30
0.0
 11
86.405211
 21
94.079467
 31
0.0
  0
LINE
  5
65D
  8
0
 10
69.780888
 20
109.079467
 30
0.0
 11
69.780888
 21
94.079467
 31
0.0
  0
DIMENSION
  5
681
  8
MATEN
  2
*D13
 10
57.59393
 20
86.313471
 30
0.0
 11
78.190154
 21
86.313471
 31
0.0
 70
   128
 13
98.598475
 23
101.561736
 33
0.0
 14
57.59393
 24
101.579467
 34
0.0
1001
ACAD
1000
DSTYLE
1002
{
1070
    78
1070
     8
1070
   288
1070
     1
1070
   140
1040
2.0
1070
    74
1070
     0
1070
   172
1070
     1
1070
    73
1070
     0
1070
    77
1070
     1
1070
   147
1040
1.0
1070
    42
1040
0.625
1070
    44
1040
1.25
1070
    43
1040
3.75
1070
   271
1070
     2
1070
   141
1040
1.0
1070
   275
1070
     1
1070
    41
1040
2.0
1070
   273
1070
     8
1070
   274
1070
     4
1070
   143
1040
0.0394
1070
   171
1070
     4
1002
}
  0
DIMENSION
  5
68E
  8
MATEN
  2
*D14
 10
91.612391
 20
129.582719
 30
0.0
 11
78.334836
 21
129.582719
 31
0.0
 70
   128
 13
64.59393
 23
113.579467
 33
0.0
 14
91.612391
 24
113.569324
 34
0.0
1001
ACAD
1000
DSTYLE
1002
{
1070
    78
1070
     8
1070
   288
1070
     1
1070
   140
1040
2.0
1070
    74
1070
     0
1070
   172
1070
     1
1070
    73
1070
     0
1070
    77
1070
     1
1070
   147
1040
1.0
1070
    42
1040
0.625
1070
    44
1040
1.25
1070
    43
1040
3.75
1070
   271
1070
     2
1070
   141
1040
1.0
1070
   275
1070
     1
1070
    41
1040
2.0
1070
   273
1070
     8
1070
   274
1070
     4
1070
   143
1040
0.0394
1070
   171
1070
     4
1002
}
  0
DIMENSION
  5
6C7
  8
MATEN
  2
*D15
 10
109.079605
 20
94.079467
 30
0.0
 11
109.079605
 21
103.739745
 31
0.0
 70
   128
 13
91.612391
 23
113.569324
 33
0.0
 14
103.092169
 24
94.079467
 34
0.0
 50
90.0
1001
ACAD
1000
DSTYLE
1002
{
1070
    78
1070
     8
1070
   288
1070
     1
1070
   140
1040
2.0
1070
    74
1070
     0
1070
   172
1070
     1
1070
    73
1070
     0
1070
    77
1070
     1
1070
   147
1040
1.0
1070
    42
1040
0.625
1070
    44
1040
1.25
1070
    43
1040
3.75
1070
   271
1070
     2
1070
   141
1040
1.0
1070
   275
1070
     1
1070
    41
1040
2.0
1070
   273
1070
     8
1070
   274
1070
     4
1070
   143
1040
0.0394
1070
   171
1070
     4
1002
}
  0
DIMENSION
  5
6D4
  8
MATEN
  2
*D16
 10
49.066173
 20
94.079467
 30
0.0
 11
49.066173
 21
97.829467
 31
0.0
 70
   128
 13
57.59393
 23
101.579467
 33
0.0
 14
53.09393
 24
94.079467
 34
0.0
 50
90.0
1001
ACAD
1000
DSTYLE
1002
{
1070
    78
1070
     8
1070
   288
1070
     1
1070
   140
1040
2.0
1070
    74
1070
     0
1070
   172
1070
     1
1070
    73
1070
     0
1070
    77
1070
     1
1070
   147
1040
1.0
1070
    42
1040
0.625
1070
    44
1040
1.25
1070
    43
1040
3.75
1070
   271
1070
     2
1070
   141
1040
1.0
1070
   275
1070
     1
1070
    41
1040
2.0
1070
   273
1070
     8
1070
   274
1070
     4
1070
   143
1040
0.0394
1070
   171
1070
     4
1002
}
  0
DIMENSION
  5
6E1
  8
MATEN
  2
*D17
 10
42.683678
 20
73.401284
 30
0.0
 11
42.683678
 21
76.81814
 31
0.0
 70
   128
 13
53.09393
 23
80.401284
 33
0.0
 14
53.09393
 24
73.401284
 34
0.0
 50
90.0
1001
ACAD
1000
DSTYLE
1002
{
1070
    78
1070
     8
1070
   288
1070
     1
1070
   140
1040
2.0
1070
    74
1070
     0
1070
   172
1070
     1
1070
    73
1070
     0
1070
    77
1070
     1
1070
   147
1040
1.0
1070
    42
1040
0.625
1070
    44
1040
1.25
1070
    43
1040
3.75
1070
   271
1070
     2
1070
   141
1040
1.0
1070
   275
1070
     1
1070
    41
1040
2.0
1070
   273
1070
     8
1070
   274
1070
     4
1070
   143
1040
0.0394
1070
   171
1070
     4
1002
}
  0
DIMENSION
  5
6EE
  8
MATEN
  2
*D18
 10
47.333782
 20
40.027604
 30
0.0
 11
47.333782
 21
49.457384
 31
0.0
 70
   128
 13
53.09393
 23
57.026985
 33
0.0
 14
53.09393
 24
40.027604
 34
0.0
 50
90.0
1001
ACAD
1000
DSTYLE
1002
{
1070
    78
1070
     8
1070
   288
1070
     1
1070
   140
1040
2.0
1070
    74
1070
     0
1070
   172
1070
     1
1070
    73
1070
     0
1070
    77
1070
     1
1070
   147
1040
1.0
1070
    42
1040
0.625
1070
    44
1040
1.25
1070
    43
1040
3.75
1070
   271
1070
     2
1070
   141
1040
1.0
1070
   275
1070
     1
1070
    41
1040
2.0
1070
   273
1070
     8
1070
   274
1070
     4
1070
   143
1040
0.0394
1070
   171
1070
     4
1002
}
  0
DIMENSION
  5
6FD
  8
MATEN
  2
*D19
 10
41.669627
 20
40.027604
 30
0.0
 11
41.669627
 21
38.777295
 31
0.0
 70
   128
 13
67.09305
 23
37.526985
 33
0.0
 14
67.09305
 24
40.027604
 34
0.0
 50
90.0
1001
ACAD
1000
DSTYLE
1002
{
1070
    78
1070
     8
1070
   288
1070
     1
1070
   140
1040
2.0
1070
    74
1070
     0
1070
   172
1070
     1
1070
    73
1070
     0
1070
    77
1070
     1
1070
   147
1040
1.0
1070
    42
1040
0.625
1070
    44
1040
1.25
1070
    43
1040
3.75
1070
   271
1070
     2
1070
   141
1040
1.0
1070
   275
1070
     1
1070
    41
1040
2.0
1070
   273
1070
     8
1070
   274
1070
     4
1070
   143
1040
0.0394
1070
   171
1070
     4
1002
}
  0
LINE
  5
708
  8
0
  6
ACAD_ISO02W100
 10
89.092139
 20
94.079467
 30
0.0
 11
89.092139
 21
111.573525
 31
0.0
  0
LINE
  5
709
  8
0
  6
ACAD_ISO02W100
 10
89.892138
 20
94.078117
 30
0.0
 11
89.892138
 21
112.214557
 31
0.0
  0
LINE
  5
70A
  8
0
  6
ACAD_ISO02W100
 10
93.292141
 20
94.080817
 30
0.0
 11
93.292141
 21
112.204064
 31
0.0
  0
LINE
  5
70B
  8
0
  6
ACAD_ISO02W100
 10
94.092139
 20
94.079467
 30
0.0
 11
94.092139
 21
111.573525
 31
0.0
  0
LINE
  5
70C
  8
0
  6
ACAD_ISO02W100
 10
89.121664
 20
111.573525
 30
0.0
 11
89.092139
 21
111.573525
 31
0.0
  0
LINE
  5
70D
  8
0
  6
ACAD_ISO02W100
 10
89.092139
 20
111.573525
 30
0.0
 11
94.092139
 21
111.573525
 31
0.0
  0
LINE
  5
714
  8
0
  6
ACAD_ISO02W100
 10
62.89393
 20
94.079467
 30
0.0
 11
62.89393
 21
112.219467
 31
0.0
  0
LINE
  5
715
  8
0
  6
ACAD_ISO02W100
 10
66.29393
 20
94.079467
 30
0.0
 11
66.29393
 21
112.219467
 31
0.0
  0
ENDSEC
  0
EOF
