  0
SECTION
  2
HEADER
  9
$ACADVER
  1
AC1009
  9
$INSBASE
 10
0.0
 20
0.0
 30
0.0
  9
$EXTMIN
 10
1541.082309
 20
1315.248541
 30
0.0
  9
$EXTMAX
 10
1905.462109
 20
1540.554413
 30
0.0
  9
$LIMMIN
 10
0.0
 20
0.0
  9
$LIMMAX
 10
4200.0
 20
2970.0
  9
$ORTHOMODE
 70
     1
  9
$REGENMODE
 70
     1
  9
$FILLMODE
 70
     1
  9
$QTEXTMODE
 70
     0
  9
$MIRRTEXT
 70
     1
  9
$DRAGMODE
 70
     2
  9
$LTSCALE
 40
8.5
  9
$OSMODE
 70
   183
  9
$ATTMODE
 70
     1
  9
$TEXTSIZE
 40
2.5
  9
$TRACEWID
 40
1.0
  9
$TEXTSTYLE
  7
STANDARD
  9
$CLAYER
  8
0
  9
$CELTYPE
  6
BYLAYER
  9
$CECOLOR
 62
   256
  9
$DIMSCALE
 40
0.0
  9
$DIMASZ
 40
3.0
  9
$DIMEXO
 40
0.625
  9
$DIMDLI
 40
3.75
  9
$DIMRND
 40
0.0
  9
$DIMDLE
 40
0.0
  9
$DIMEXE
 40
1.25
  9
$DIMTP
 40
0.0
  9
$DIMTM
 40
0.0
  9
$DIMTXT
 40
3.0
  9
$DIMCEN
 40
2.5
  9
$DIMTSZ
 40
0.0
  9
$DIMTOL
 70
     0
  9
$DIMLIM
 70
     0
  9
$DIMTIH
 70
     0
  9
$DIMTOH
 70
     0
  9
$DIMSE1
 70
     0
  9
$DIMSE2
 70
     0
  9
$DIMTAD
 70
     1
  9
$DIMZIN
 70
     8
  9
$DIMBLK
  1

  9
$DIMASO
 70
     1
  9
$DIMSHO
 70
     1
  9
$DIMPOST
  1

  9
$DIMAPOST
  1

  9
$DIMALT
 70
     0
  9
$DIMALTD
 70
     4
  9
$DIMALTF
 40
0.0394
  9
$DIMLFAC
 40
1.0
  9
$DIMTOFL
 70
     1
  9
$DIMTVP
 40
0.0
  9
$DIMTIX
 70
     0
  9
$DIMSOXD
 70
     0
  9
$DIMSAH
 70
     0
  9
$DIMBLK1
  1

  9
$DIMBLK2
  1

  9
$DIMSTYLE
  2
STANDARD
  9
$DIMCLRD
 70
     0
  9
$DIMCLRE
 70
     0
  9
$DIMCLRT
 70
     0
  9
$DIMTFAC
 40
1.0
  9
$DIMGAP
 40
0.625
  9
$LUNITS
 70
     2
  9
$LUPREC
 70
     4
  9
$SKETCHINC
 40
1.0
  9
$FILLETRAD
 40
2.0
  9
$AUNITS
 70
     0
  9
$AUPREC
 70
     0
  9
$MENU
  1
acad
  9
$ELEVATION
 40
0.0
  9
$PELEVATION
 40
0.0
  9
$THICKNESS
 40
0.0
  9
$LIMCHECK
 70
     0
  9
$BLIPMODE
 70
     0
  9
$CHAMFERA
 40
0.0
  9
$CHAMFERB
 40
0.0
  9
$SKPOLY
 70
     0
  9
$TDCREATE
 40
2451801.38001
  9
$TDUPDATE
 40
2451978.672553
  9
$TDINDWG
 40
1.925286
  9
$TDUSRTIMER
 40
1.925286
  9
$USRTIMER
 70
     1
  9
$ANGBASE
 50
0.0
  9
$ANGDIR
 70
     0
  9
$PDMODE
 70
     0
  9
$PDSIZE
 40
0.0
  9
$PLINEWID
 40
0.0
  9
$COORDS
 70
     1
  9
$SPLFRAME
 70
     0
  9
$SPLINETYPE
 70
     6
  9
$SPLINESEGS
 70
     8
  9
$ATTDIA
 70
     0
  9
$ATTREQ
 70
     1
  9
$HANDLING
 70
     1
  9
$HANDSEED
  5
D6A
  9
$SURFTAB1
 70
     6
  9
$SURFTAB2
 70
     6
  9
$SURFTYPE
 70
     6
  9
$SURFU
 70
     6
  9
$SURFV
 70
     6
  9
$UCSNAME
  2

  9
$UCSORG
 10
0.0
 20
0.0
 30
0.0
  9
$UCSXDIR
 10
1.0
 20
0.0
 30
0.0
  9
$UCSYDIR
 10
0.0
 20
1.0
 30
0.0
  9
$PUCSNAME
  2

  9
$PUCSORG
 10
0.0
 20
0.0
 30
0.0
  9
$PUCSXDIR
 10
1.0
 20
0.0
 30
0.0
  9
$PUCSYDIR
 10
0.0
 20
1.0
 30
0.0
  9
$USERI1
 70
     0
  9
$USERI2
 70
     0
  9
$USERI3
 70
     0
  9
$USERI4
 70
     0
  9
$USERI5
 70
     0
  9
$USERR1
 40
0.0
  9
$USERR2
 40
0.0
  9
$USERR3
 40
0.0
  9
$USERR4
 40
0.0
  9
$USERR5
 40
0.0
  9
$WORLDVIEW
 70
     1
  9
$SHADEDGE
 70
     3
  9
$SHADEDIF
 70
    70
  9
$TILEMODE
 70
     1
  9
$MAXACTVP
 70
    48
  9
$PLIMCHECK
 70
     0
  9
$PEXTMIN
 10
1.000000E+020
 20
1.000000E+020
 30
1.000000E+020
  9
$PEXTMAX
 10
-1.000000E+020
 20
-1.000000E+020
 30
-1.000000E+020
  9
$PLIMMIN
 10
0.0
 20
0.0
  9
$PLIMMAX
 10
420.0
 20
297.0
  9
$UNITMODE
 70
     0
  9
$VISRETAIN
 70
     1
  9
$PLINEGEN
 70
     0
  9
$PSLTSCALE
 70
     1
  0
ENDSEC
  0
SECTION
  2
TABLES
  0
TABLE
  2
VPORT
 70
     2
  0
VPORT
  2
*ACTIVE
 70
     0
 10
0.0
 20
0.0
 11
1.0
 21
1.0
 12
1723.6547
 22
1431.287434
 13
0.0
 23
0.0
 14
10.0
 24
10.0
 15
25.0
 25
25.0
 16
0.0
 26
0.0
 36
1.0
 17
0.0
 27
0.0
 37
0.0
 40
289.666735
 41
1.700368
 42
50.0
 43
0.0
 44
0.0
 50
0.0
 51
0.0
 71
     0
 72
   100
 73
     1
 74
     1
 75
     0
 76
     0
 77
     0
 78
     0
  0
ENDTAB
  0
TABLE
  2
LTYPE
 70
     3
  0
LTYPE
  2
CONTINUOUS
 70
     0
  3
Solid line
 72
    65
 73
     0
 40
0.0
  0
LTYPE
  2
DASHED2
 70
     0
  3
Dashed (.5x) _ _ _ _ _ _ _ _ _ _ _ _ _ _ _ _ _
 72
    65
 73
     2
 40
0.375
 49
0.25
 49
-0.125
  0
LTYPE
  2
ACAD_ISO02W100
 70
     0
  3
ISO dash __ __ __ __ __ __ __ __ __ __ __ __ __
 72
    65
 73
     2
 40
15.0
 49
12.0
 49
-3.0
  0
ENDTAB
  0
TABLE
  2
LAYER
 70
     3
  0
LAYER
  2
0
 70
     0
 62
     7
  6
CONTINUOUS
  0
LAYER
  2
DEFPOINTS
 70
     0
 62
     7
  6
CONTINUOUS
  0
LAYER
  2
MATEN
 70
     0
 62
     1
  6
CONTINUOUS
  0
ENDTAB
  0
TABLE
  2
STYLE
 70
     1
  0
STYLE
  2
STANDARD
 70
     0
 40
0.0
 41
1.0
 50
0.0
 71
     0
 42
2.5
  3
txt
  4

  0
ENDTAB
  0
TABLE
  2
VIEW
 70
     0
  0
ENDTAB
  0
TABLE
  2
UCS
 70
     0
  0
ENDTAB
  0
TABLE
  2
APPID
 70
     1
  0
APPID
  2
ACAD
 70
     0
  0
ENDTAB
  0
TABLE
  2
DIMSTYLE
 70
     1
  0
DIMSTYLE
  2
STANDARD
 70
     0
  3

  4

  5

  6

  7

 40
1.0
 41
0.18
 42
0.0625
 43
0.38
 44
0.18
 45
0.0
 46
0.0
 47
0.0
 48
0.0
140
0.18
141
0.09
142
0.0
143
25.4
144
1.0
145
0.0
146
1.0
147
0.09
 71
     0
 72
     0
 73
     1
 74
     1
 75
     0
 76
     0
 77
     0
 78
     0
170
     0
171
     2
172
     0
173
     0
174
     0
175
     0
176
     0
177
     0
178
     0
  0
ENDTAB
  0
ENDSEC
  0
SECTION
  2
BLOCKS
  0
BLOCK
  8
0
  2
$MODEL_SPACE
 70
     0
 10
0.0
 20
0.0
 30
0.0
  3
$MODEL_SPACE
  1

  0
ENDBLK
  5
6
  8
0
  0
BLOCK
 67
     1
  8
0
  2
$PAPER_SPACE
 70
     0
 10
0.0
 20
0.0
 30
0.0
  3
$PAPER_SPACE
  1

  0
ENDBLK
  5
9
 67
     1
  8
0
  0
BLOCK
  8
0
  2
*D0
 70
     1
 10
0.0
 20
0.0
 30
0.0
  3
*D0
  1

  0
LINE
  5
294
  8
0
  6
BYBLOCK
 62
     0
 10
1597.683838
 20
1499.039693
 30
0.0
 11
1597.683838
 21
1527.629685
 31
0.0
  0
LINE
  5
295
  8
0
  6
BYBLOCK
 62
     0
 10
1627.683838
 20
1499.039693
 30
0.0
 11
1627.683838
 21
1527.629685
 31
0.0
  0
LINE
  5
296
  8
0
  6
BYBLOCK
 62
     0
 10
1600.683838
 20
1526.379685
 30
0.0
 11
1624.683838
 21
1526.379685
 31
0.0
  0
SOLID
  5
297
  8
0
  6
BYBLOCK
 62
     0
 10
1600.683838
 20
1526.879685
 30
0.0
 11
1600.683838
 21
1525.879685
 31
0.0
 12
1597.683838
 22
1526.379685
 32
0.0
 13
1597.683838
 23
1526.379685
 33
0.0
  0
SOLID
  5
298
  8
0
  6
BYBLOCK
 62
     0
 10
1624.683838
 20
1526.879685
 30
0.0
 11
1624.683838
 21
1525.879685
 31
0.0
 12
1627.683838
 22
1526.379685
 32
0.0
 13
1627.683838
 23
1526.379685
 33
0.0
  0
TEXT
  8
0
  40
3
  5
D4E
  62
0
  72
0
  71
0
 10
1606.68
 20
1523.19
 30
0.000000
  1
30
  0
POINT
  5
29A
  8
DEFPOINTS
  6
BYBLOCK
 62
     0
 10
1597.683838
 20
1498.414693
 30
0.0
  0
POINT
  5
29B
  8
DEFPOINTS
  6
BYBLOCK
 62
     0
 10
1627.683838
 20
1498.414693
 30
0.0
  0
POINT
  5
29C
  8
DEFPOINTS
  6
BYBLOCK
 62
     0
 10
1627.683838
 20
1526.379685
 30
0.0
  0
ENDBLK
  5
29D
  8
0
  0
BLOCK
  8
0
  2
*D1
 70
     1
 10
0.0
 20
0.0
 30
0.0
  3
*D1
  1

  0
LINE
  5
289
  8
0
  6
BYBLOCK
 62
     0
 10
1629.308838
 20
1483.414693
 30
0.0
 11
1645.781697
 21
1483.414693
 31
0.0
  0
LINE
  5
28A
  8
0
  6
BYBLOCK
 62
     0
 10
1628.308838
 20
1498.414693
 30
0.0
 11
1645.781697
 21
1498.414693
 31
0.0
  0
LINE
  5
28B
  8
0
  6
BYBLOCK
 62
     0
 10
1644.531697
 20
1486.414693
 30
0.0
 11
1644.531697
 21
1495.414693
 31
0.0
  0
SOLID
  5
28C
  8
0
  6
BYBLOCK
 62
     0
 10
1644.031697
 20
1486.414693
 30
0.0
 11
1645.031697
 21
1486.414693
 31
0.0
 12
1644.531697
 22
1483.414693
 32
0.0
 13
1644.531697
 23
1483.414693
 33
0.0
  0
SOLID
  5
28D
  8
0
  6
BYBLOCK
 62
     0
 10
1644.031697
 20
1495.414693
 30
0.0
 11
1645.031697
 21
1495.414693
 31
0.0
 12
1644.531697
 22
1498.414693
 32
0.0
 13
1644.531697
 23
1498.414693
 33
0.0
  0
TEXT
  8
0
  40
3
  5
D4F
  62
0
  72
0
  71
0
 10
1636.41
 20
1485.60
 30
0.000000
  1
15
  0
POINT
  5
28F
  8
DEFPOINTS
  6
BYBLOCK
 62
     0
 10
1628.683838
 20
1483.414693
 30
0.0
  0
POINT
  5
290
  8
DEFPOINTS
  6
BYBLOCK
 62
     0
 10
1627.683838
 20
1498.414693
 30
0.0
  0
POINT
  5
291
  8
DEFPOINTS
  6
BYBLOCK
 62
     0
 10
1644.531697
 20
1498.414693
 30
0.0
  0
ENDBLK
  5
292
  8
0
  0
BLOCK
  8
0
  2
*D2
 70
     1
 10
0.0
 20
0.0
 30
0.0
  3
*D2
  1

  0
LINE
  5
263
  8
0
  6
BYBLOCK
 62
     0
 10
1595.683838
 20
1484.254039
 30
0.0
 11
1595.683838
 21
1474.975832
 31
0.0
  0
LINE
  5
264
  8
0
  6
BYBLOCK
 62
     0
 10
1599.683838
 20
1482.789693
 30
0.0
 11
1599.683838
 21
1474.975832
 31
0.0
  0
LINE
  5
265
  8
0
  6
BYBLOCK
 62
     0
 10
1585.683838
 20
1476.225832
 30
0.0
 11
1575.683838
 21
1476.225832
 31
0.0
  0
LINE
  5
266
  8
0
  6
BYBLOCK
 62
     0
 10
1609.683838
 20
1476.225832
 30
0.0
 11
1624.267172
 21
1476.225832
 31
0.0
  0
LINE
  5
267
  8
0
  6
BYBLOCK
 62
     0
 10
1595.683838
 20
1476.225832
 30
0.0
 11
1599.683838
 21
1476.225832
 31
0.0
  0
SOLID
  5
268
  8
0
  6
BYBLOCK
 62
     0
 10
1585.683838
 20
1477.892498
 30
0.0
 11
1585.683838
 21
1474.559165
 31
0.0
 12
1595.683838
 22
1476.225832
 32
0.0
 13
1595.683838
 23
1476.225832
 33
0.0
  0
SOLID
  5
269
  8
0
  6
BYBLOCK
 62
     0
 10
1609.683838
 20
1477.892498
 30
0.0
 11
1609.683838
 21
1474.559165
 31
0.0
 12
1599.683838
 22
1476.225832
 32
0.0
 13
1599.683838
 23
1476.225832
 33
0.0
  0
TEXT
  8
0
  40
5
  5
D50
  62
0
  72
0
  71
0
 10
1611.98
 20
1470.50
 30
0.000000
  1
4
  0
POINT
  5
26B
  8
DEFPOINTS
  6
BYBLOCK
 62
     0
 10
1595.683838
 20
1484.879039
 30
0.0
  0
POINT
  5
26C
  8
DEFPOINTS
  6
BYBLOCK
 62
     0
 10
1599.683838
 20
1483.414693
 30
0.0
  0
POINT
  5
26D
  8
DEFPOINTS
  6
BYBLOCK
 62
     0
 10
1599.683838
 20
1476.225832
 30
0.0
  0
ENDBLK
  5
26E
  8
0
  0
BLOCK
  8
0
  2
*D3
 70
     1
 10
0.0
 20
0.0
 30
0.0
  3
*D3
  1

  0
LINE
  5
2A0
  8
0
  6
BYBLOCK
 62
     0
 10
1650.585587
 20
1529.610444
 30
0.0
 11
1629.760732
 21
1510.821824
 31
0.0
  0
LINE
  5
2A1
  8
0
  6
BYBLOCK
 62
     0
 10
1595.606944
 20
1480.007562
 30
0.0
 11
1593.379523
 21
1477.997936
 31
0.0
  0
TEXT
  8
0
  40
3
  5
D51
  62
0
  72
0
  71
0
 10
1639.91
 20
1522.95
 30
0.000000
  1
%%c40
  0
LINE
  5
2A3
  8
0
  6
BYBLOCK
 62
     0
 10
1597.834365
 20
1482.017188
 30
0.0
 11
1627.533311
 21
1508.812199
 31
0.0
  0
SOLID
  5
2A4
  8
0
  6
BYBLOCK
 62
     0
 10
1595.272007
 20
1480.378799
 30
0.0
 11
1595.941882
 21
1479.636325
 31
0.0
 12
1597.834365
 22
1482.017188
 32
0.0
 13
1597.834365
 23
1482.017188
 33
0.0
  0
SOLID
  5
2A5
  8
0
  6
BYBLOCK
 62
     0
 10
1629.425795
 20
1511.193061
 30
0.0
 11
1630.09567
 21
1510.450588
 31
0.0
 12
1627.533311
 22
1508.812199
 32
0.0
 13
1627.533311
 23
1508.812199
 33
0.0
  0
POINT
  5
2A6
  8
DEFPOINTS
  6
BYBLOCK
 62
     0
 10
1627.533311
 20
1508.812199
 30
0.0
  0
POINT
  5
2A7
  8
DEFPOINTS
  6
BYBLOCK
 62
     0
 10
1597.834365
 20
1482.017188
 30
0.0
  0
ENDBLK
  5
2A8
  8
0
  0
BLOCK
  8
0
  2
*D4
 70
     1
 10
0.0
 20
0.0
 30
0.0
  3
*D4
  1

  0
LINE
  5
2AC
  8
0
  6
BYBLOCK
 62
     0
 10
1648.681646
 20
1511.061622
 30
0.0
 11
1623.255791
 21
1503.753413
 31
0.0
  0
LINE
  5
2AD
  8
0
  6
BYBLOCK
 62
     0
 10
1602.111886
 20
1497.675974
 30
0.0
 11
1599.228626
 21
1496.847232
 31
0.0
  0
TEXT
  8
0
  40
3
  5
D52
  62
0
  72
0
  71
0
 10
1638.13
 20
1506.65
 30
0.000000
  1
%%c16
  0
LINE
  5
2AF
  8
0
  6
BYBLOCK
 62
     0
 10
1604.995145
 20
1498.504715
 30
0.0
 11
1620.372531
 21
1502.924671
 31
0.0
  0
SOLID
  5
2B0
  8
0
  6
BYBLOCK
 62
     0
 10
1601.973762
 20
1498.156517
 30
0.0
 11
1602.250009
 21
1497.19543
 31
0.0
 12
1604.995145
 22
1498.504715
 32
0.0
 13
1604.995145
 23
1498.504715
 33
0.0
  0
SOLID
  5
2B1
  8
0
  6
BYBLOCK
 62
     0
 10
1623.117667
 20
1504.233956
 30
0.0
 11
1623.393915
 21
1503.272869
 31
0.0
 12
1620.372531
 22
1502.924671
 32
0.0
 13
1620.372531
 23
1502.924671
 33
0.0
  0
POINT
  5
2B2
  8
DEFPOINTS
  6
BYBLOCK
 62
     0
 10
1620.372531
 20
1502.924671
 30
0.0
  0
POINT
  5
2B3
  8
DEFPOINTS
  6
BYBLOCK
 62
     0
 10
1604.995145
 20
1498.504715
 30
0.0
  0
ENDBLK
  5
2B4
  8
0
  0
BLOCK
  8
0
  2
*D5
 70
     1
 10
0.0
 20
0.0
 30
0.0
  3
*D5
  1

  0
LINE
  5
2B8
  8
0
  6
BYBLOCK
 62
     0
 10
1542.670247
 20
1516.039693
 30
0.0
 11
1542.670247
 21
1529.23893
 31
0.0
  0
LINE
  5
2B9
  8
0
  6
BYBLOCK
 62
     0
 10
1572.670247
 20
1516.039693
 30
0.0
 11
1572.670247
 21
1529.23893
 31
0.0
  0
LINE
  5
2BA
  8
0
  6
BYBLOCK
 62
     0
 10
1545.670247
 20
1527.98893
 30
0.0
 11
1569.670247
 21
1527.98893
 31
0.0
  0
SOLID
  5
2BB
  8
0
  6
BYBLOCK
 62
     0
 10
1545.670247
 20
1528.48893
 30
0.0
 11
1545.670247
 21
1527.48893
 31
0.0
 12
1542.670247
 22
1527.98893
 32
0.0
 13
1542.670247
 23
1527.98893
 33
0.0
  0
SOLID
  5
2BC
  8
0
  6
BYBLOCK
 62
     0
 10
1569.670247
 20
1528.48893
 30
0.0
 11
1569.670247
 21
1527.48893
 31
0.0
 12
1572.670247
 22
1527.98893
 32
0.0
 13
1572.670247
 23
1527.98893
 33
0.0
  0
TEXT
  8
0
  40
3
  5
D53
  62
0
  72
0
  71
0
 10
1551.67
 20
1524.80
 30
0.000000
  1
30
  0
POINT
  5
2BE
  8
DEFPOINTS
  6
BYBLOCK
 62
     0
 10
1542.670247
 20
1515.414693
 30
0.0
  0
POINT
  5
2BF
  8
DEFPOINTS
  6
BYBLOCK
 62
     0
 10
1572.670247
 20
1515.414693
 30
0.0
  0
POINT
  5
2C0
  8
DEFPOINTS
  6
BYBLOCK
 62
     0
 10
1572.670247
 20
1527.98893
 30
0.0
  0
ENDBLK
  5
2C1
  8
0
  0
BLOCK
  8
0
  2
*D6
 70
     1
 10
0.0
 20
0.0
 30
0.0
  3
*D6
  1

  0
LINE
  5
2D4
  8
0
  6
BYBLOCK
 62
     0
 10
1597.683838
 20
1499.039693
 30
0.0
 11
1597.683838
 21
1503.119587
 31
0.0
  0
LINE
  5
2D5
  8
0
  6
BYBLOCK
 62
     0
 10
1596.683838
 20
1484.039693
 30
0.0
 11
1596.683838
 21
1503.119587
 31
0.0
  0
LINE
  5
2D6
  8
0
  6
BYBLOCK
 62
     0
 10
1600.683838
 20
1501.869587
 30
0.0
 11
1603.683838
 21
1501.869587
 31
0.0
  0
LINE
  5
2D7
  8
0
  6
BYBLOCK
 62
     0
 10
1593.683838
 20
1501.869587
 30
0.0
 11
1588.433838
 21
1501.869587
 31
0.0
  0
LINE
  5
2D8
  8
0
  6
BYBLOCK
 62
     0
 10
1597.683838
 20
1501.869587
 30
0.0
 11
1596.683838
 21
1501.869587
 31
0.0
  0
SOLID
  5
2D9
  8
0
  6
BYBLOCK
 62
     0
 10
1600.683838
 20
1502.369587
 30
0.0
 11
1600.683838
 21
1501.369587
 31
0.0
 12
1597.683838
 22
1501.869587
 32
0.0
 13
1597.683838
 23
1501.869587
 33
0.0
  0
SOLID
  5
2DA
  8
0
  6
BYBLOCK
 62
     0
 10
1593.683838
 20
1502.369587
 30
0.0
 11
1593.683838
 21
1501.369587
 31
0.0
 12
1596.683838
 22
1501.869587
 32
0.0
 13
1596.683838
 23
1501.869587
 33
0.0
  0
TEXT
  8
0
  40
3
  5
D54
  62
0
  72
0
  71
0
 10
1583.56
 20
1498.68
 30
0.000000
  1
1
  0
POINT
  5
2DC
  8
DEFPOINTS
  6
BYBLOCK
 62
     0
 10
1597.683838
 20
1498.414693
 30
0.0
  0
POINT
  5
2DD
  8
DEFPOINTS
  6
BYBLOCK
 62
     0
 10
1596.683838
 20
1483.414693
 30
0.0
  0
POINT
  5
2DE
  8
DEFPOINTS
  6
BYBLOCK
 62
     0
 10
1596.683838
 20
1501.869587
 30
0.0
  0
ENDBLK
  5
2DF
  8
0
  0
BLOCK
  8
0
  2
*D7
 70
     1
 10
0.0
 20
0.0
 30
0.0
  3
*D7
  1

  0
LINE
  5
592
  8
0
  6
BYBLOCK
 62
     0
 10
1721.682192
 20
1499.414693
 30
0.0
 11
1755.550293
 21
1499.414693
 31
0.0
  0
LINE
  5
593
  8
0
  6
BYBLOCK
 62
     0
 10
1721.682192
 20
1389.414693
 30
0.0
 11
1755.550293
 21
1389.414693
 31
0.0
  0
LINE
  5
594
  8
0
  6
BYBLOCK
 62
     0
 10
1754.300293
 20
1496.414693
 30
0.0
 11
1754.300293
 21
1392.414693
 31
0.0
  0
SOLID
  5
595
  8
0
  6
BYBLOCK
 62
     0
 10
1753.800293
 20
1496.414693
 30
0.0
 11
1754.800293
 21
1496.414693
 31
0.0
 12
1754.300293
 22
1499.414693
 32
0.0
 13
1754.300293
 23
1499.414693
 33
0.0
  0
SOLID
  5
596
  8
0
  6
BYBLOCK
 62
     0
 10
1753.800293
 20
1392.414693
 30
0.0
 11
1754.800293
 21
1392.414693
 31
0.0
 12
1754.300293
 22
1389.414693
 32
0.0
 13
1754.300293
 23
1389.414693
 33
0.0
  0
TEXT
  8
0
  40
3
  5
D55
  62
0
  72
0
  71
0
 10
1746.18
 20
1439.10
 30
0.000000
  1
110
  0
POINT
  5
598
  8
DEFPOINTS
  6
BYBLOCK
 62
     0
 10
1721.057192
 20
1499.414693
 30
0.0
  0
POINT
  5
599
  8
DEFPOINTS
  6
BYBLOCK
 62
     0
 10
1721.057192
 20
1389.414693
 30
0.0
  0
POINT
  5
59A
  8
DEFPOINTS
  6
BYBLOCK
 62
     0
 10
1754.300293
 20
1389.414693
 30
0.0
  0
ENDBLK
  5
59B
  8
0
  0
BLOCK
  8
0
  2
*D8
 70
     1
 10
0.0
 20
0.0
 30
0.0
  3
*D8
  1

  0
LINE
  5
5C0
  8
0
  6
BYBLOCK
 62
     0
 10
1737.732192
 20
1519.414693
 30
0.0
 11
1687.305852
 21
1519.414693
 31
0.0
  0
LINE
  5
5C1
  8
0
  6
BYBLOCK
 62
     0
 10
1722.732192
 20
1514.414693
 30
0.0
 11
1687.305852
 21
1514.414693
 31
0.0
  0
LINE
  5
5C2
  8
0
  6
BYBLOCK
 62
     0
 10
1688.555852
 20
1522.414693
 30
0.0
 11
1688.555852
 21
1525.414693
 31
0.0
  0
LINE
  5
5C3
  8
0
  6
BYBLOCK
 62
     0
 10
1688.555852
 20
1511.414693
 30
0.0
 11
1688.555852
 21
1508.414693
 31
0.0
  0
LINE
  5
5C4
  8
0
  6
BYBLOCK
 62
     0
 10
1688.555852
 20
1519.414693
 30
0.0
 11
1688.555852
 21
1514.414693
 31
0.0
  0
SOLID
  5
5C5
  8
0
  6
BYBLOCK
 62
     0
 10
1688.055852
 20
1522.414693
 30
0.0
 11
1689.055852
 21
1522.414693
 31
0.0
 12
1688.555852
 22
1519.414693
 32
0.0
 13
1688.555852
 23
1519.414693
 33
0.0
  0
SOLID
  5
5C6
  8
0
  6
BYBLOCK
 62
     0
 10
1688.055852
 20
1511.414693
 30
0.0
 11
1689.055852
 21
1511.414693
 31
0.0
 12
1688.555852
 22
1514.414693
 32
0.0
 13
1688.555852
 23
1514.414693
 33
0.0
  0
TEXT
  8
0
  40
3
  5
D56
  62
0
  72
0
  71
0
 10
1680.43
 20
1511.60
 30
0.000000
  1
5
  0
POINT
  5
5C8
  8
DEFPOINTS
  6
BYBLOCK
 62
     0
 10
1738.357192
 20
1519.414693
 30
0.0
  0
POINT
  5
5C9
  8
DEFPOINTS
  6
BYBLOCK
 62
     0
 10
1723.357192
 20
1514.414693
 30
0.0
  0
POINT
  5
5CA
  8
DEFPOINTS
  6
BYBLOCK
 62
     0
 10
1688.555852
 20
1514.414693
 30
0.0
  0
ENDBLK
  5
5CB
  8
0
  0
BLOCK
  8
0
  2
*D9
 70
     1
 10
0.0
 20
0.0
 30
0.0
  3
*D9
  1

  0
LINE
  5
5CD
  8
0
  6
BYBLOCK
 62
     0
 10
1786.487188
 20
1512.414693
 30
0.0
 11
1809.883619
 21
1512.414693
 31
0.0
  0
LINE
  5
5CE
  8
0
  6
BYBLOCK
 62
     0
 10
1786.487188
 20
1486.214693
 30
0.0
 11
1809.883619
 21
1486.214693
 31
0.0
  0
LINE
  5
5CF
  8
0
  6
BYBLOCK
 62
     0
 10
1808.633619
 20
1509.414693
 30
0.0
 11
1808.633619
 21
1489.214693
 31
0.0
  0
SOLID
  5
5D0
  8
0
  6
BYBLOCK
 62
     0
 10
1808.133619
 20
1509.414693
 30
0.0
 11
1809.133619
 21
1509.414693
 31
0.0
 12
1808.633619
 22
1512.414693
 32
0.0
 13
1808.633619
 23
1512.414693
 33
0.0
  0
SOLID
  5
5D1
  8
0
  6
BYBLOCK
 62
     0
 10
1808.133619
 20
1489.214693
 30
0.0
 11
1809.133619
 21
1489.214693
 31
0.0
 12
1808.633619
 22
1486.214693
 32
0.0
 13
1808.633619
 23
1486.214693
 33
0.0
  0
TEXT
  8
0
  40
3
  5
D57
  62
0
  72
0
  71
0
 10
1800.51
 20
1494.00
 30
0.000000
  1
26.2
  0
POINT
  5
5D3
  8
DEFPOINTS
  6
BYBLOCK
 62
     0
 10
1785.862188
 20
1512.414693
 30
0.0
  0
POINT
  5
5D4
  8
DEFPOINTS
  6
BYBLOCK
 62
     0
 10
1785.862188
 20
1486.214693
 30
0.0
  0
POINT
  5
5D5
  8
DEFPOINTS
  6
BYBLOCK
 62
     0
 10
1808.633619
 20
1486.214693
 30
0.0
  0
ENDBLK
  5
5D6
  8
0
  0
BLOCK
  8
0
  2
*D10
 70
     1
 10
0.0
 20
0.0
 30
0.0
  3
*D10
  1

  0
LINE
  5
5D8
  8
0
  6
BYBLOCK
 62
     0
 10
1785.237188
 20
1512.014693
 30
0.0
 11
1774.731334
 21
1512.014693
 31
0.0
  0
LINE
  5
5D9
  8
0
  6
BYBLOCK
 62
     0
 10
1785.237188
 20
1486.614693
 30
0.0
 11
1774.731334
 21
1486.614693
 31
0.0
  0
LINE
  5
5DA
  8
0
  6
BYBLOCK
 62
     0
 10
1775.981334
 20
1509.014693
 30
0.0
 11
1775.981334
 21
1489.614693
 31
0.0
  0
SOLID
  5
5DB
  8
0
  6
BYBLOCK
 62
     0
 10
1775.481334
 20
1509.014693
 30
0.0
 11
1776.481334
 21
1509.014693
 31
0.0
 12
1775.981334
 22
1512.014693
 32
0.0
 13
1775.981334
 23
1512.014693
 33
0.0
  0
SOLID
  5
5DC
  8
0
  6
BYBLOCK
 62
     0
 10
1775.481334
 20
1489.614693
 30
0.0
 11
1776.481334
 21
1489.614693
 31
0.0
 12
1775.981334
 22
1486.614693
 32
0.0
 13
1775.981334
 23
1486.614693
 33
0.0
  0
TEXT
  8
0
  40
3
  5
D58
  62
0
  72
0
  71
0
 10
1767.86
 20
1494.00
 30
0.000000
  1
25.4
  0
POINT
  5
5DE
  8
DEFPOINTS
  6
BYBLOCK
 62
     0
 10
1785.862188
 20
1512.014693
 30
0.0
  0
POINT
  5
5DF
  8
DEFPOINTS
  6
BYBLOCK
 62
     0
 10
1785.862188
 20
1486.614693
 30
0.0
  0
POINT
  5
5E0
  8
DEFPOINTS
  6
BYBLOCK
 62
     0
 10
1775.981334
 20
1486.614693
 30
0.0
  0
ENDBLK
  5
5E1
  8
0
  0
BLOCK
  8
0
  2
*D11
 70
     1
 10
0.0
 20
0.0
 30
0.0
  3
*D11
  1

  0
LINE
  5
587
  8
0
  6
BYBLOCK
 62
     0
 10
1786.487188
 20
1516.814693
 30
0.0
 11
1822.909646
 21
1516.814693
 31
0.0
  0
LINE
  5
588
  8
0
  6
BYBLOCK
 62
     0
 10
1786.487188
 20
1481.814693
 30
0.0
 11
1822.909646
 21
1481.814693
 31
0.0
  0
LINE
  5
589
  8
0
  6
BYBLOCK
 62
     0
 10
1821.659646
 20
1513.814693
 30
0.0
 11
1821.659646
 21
1484.814693
 31
0.0
  0
SOLID
  5
58A
  8
0
  6
BYBLOCK
 62
     0
 10
1821.159646
 20
1513.814693
 30
0.0
 11
1822.159646
 21
1513.814693
 31
0.0
 12
1821.659646
 22
1516.814693
 32
0.0
 13
1821.659646
 23
1516.814693
 33
0.0
  0
SOLID
  5
58B
  8
0
  6
BYBLOCK
 62
     0
 10
1821.159646
 20
1484.814693
 30
0.0
 11
1822.159646
 21
1484.814693
 31
0.0
 12
1821.659646
 22
1481.814693
 32
0.0
 13
1821.659646
 23
1481.814693
 33
0.0
  0
TEXT
  8
0
  40
3
  5
D59
  62
0
  72
0
  71
0
 10
1813.53
 20
1494.00
 30
0.000000
  1
35
  0
POINT
  5
58D
  8
DEFPOINTS
  6
BYBLOCK
 62
     0
 10
1785.862188
 20
1516.814693
 30
0.0
  0
POINT
  5
58E
  8
DEFPOINTS
  6
BYBLOCK
 62
     0
 10
1785.862188
 20
1481.814693
 30
0.0
  0
POINT
  5
58F
  8
DEFPOINTS
  6
BYBLOCK
 62
     0
 10
1821.659646
 20
1481.814693
 30
0.0
  0
ENDBLK
  5
590
  8
0
  0
BLOCK
  8
0
  2
*D12
 70
     1
 10
0.0
 20
0.0
 30
0.0
  3
*D12
  1

  0
LINE
  5
57D
  8
0
  6
BYBLOCK
 62
     0
 10
1804.80857
 20
1465.540974
 30
0.0
 11
1789.708139
 21
1480.424091
 31
0.0
  0
LINE
  5
57E
  8
0
  6
BYBLOCK
 62
     0
 10
1782.016238
 20
1488.005296
 30
0.0
 11
1779.879599
 21
1490.111186
 31
0.0
  0
TEXT
  8
0
  40
3
  5
D5A
  62
0
  72
0
  71
0
 10
1796.65
 20
1465.34
 30
0.000000
  1
%%c4.8
  0
LINE
  5
580
  8
0
  6
BYBLOCK
 62
     0
 10
1784.152877
 20
1485.899405
 30
0.0
 11
1787.5715
 21
1482.529981
 31
0.0
  0
SOLID
  5
581
  8
0
  6
BYBLOCK
 62
     0
 10
1782.36722
 20
1488.361402
 30
0.0
 11
1781.665256
 21
1487.649189
 31
0.0
 12
1784.152877
 22
1485.899405
 32
0.0
 13
1784.152877
 23
1485.899405
 33
0.0
  0
SOLID
  5
582
  8
0
  6
BYBLOCK
 62
     0
 10
1790.05912
 20
1480.780197
 30
0.0
 11
1789.357157
 21
1480.067984
 31
0.0
 12
1787.5715
 22
1482.529981
 32
0.0
 13
1787.5715
 23
1482.529981
 33
0.0
  0
POINT
  5
583
  8
DEFPOINTS
  6
BYBLOCK
 62
     0
 10
1787.5715
 20
1482.529981
 30
0.0
  0
POINT
  5
584
  8
DEFPOINTS
  6
BYBLOCK
 62
     0
 10
1784.152877
 20
1485.899405
 30
0.0
  0
ENDBLK
  5
585
  8
0
  0
BLOCK
  8
0
  2
*D13
 70
     1
 10
0.0
 20
0.0
 30
0.0
  3
*D13
  1

  0
LINE
  5
5B5
  8
0
  6
BYBLOCK
 62
     0
 10
1876.487188
 20
1404.414693
 30
0.0
 11
1905.462109
 21
1404.414693
 31
0.0
  0
LINE
  5
5B6
  8
0
  6
BYBLOCK
 62
     0
 10
1876.487188
 20
1374.214693
 30
0.0
 11
1905.462109
 21
1374.214693
 31
0.0
  0
LINE
  5
5B7
  8
0
  6
BYBLOCK
 62
     0
 10
1904.212109
 20
1401.414693
 30
0.0
 11
1904.212109
 21
1377.214693
 31
0.0
  0
SOLID
  5
5B8
  8
0
  6
BYBLOCK
 62
     0
 10
1903.712109
 20
1401.414693
 30
0.0
 11
1904.712109
 21
1401.414693
 31
0.0
 12
1904.212109
 22
1404.414693
 32
0.0
 13
1904.212109
 23
1404.414693
 33
0.0
  0
SOLID
  5
5B9
  8
0
  6
BYBLOCK
 62
     0
 10
1903.712109
 20
1377.214693
 30
0.0
 11
1904.712109
 21
1377.214693
 31
0.0
 12
1904.212109
 22
1374.214693
 32
0.0
 13
1904.212109
 23
1374.214693
 33
0.0
  0
TEXT
  8
0
  40
3
  5
D5B
  62
0
  72
0
  71
0
 10
1896.09
 20
1384.00
 30
0.000000
  1
30.2
  0
POINT
  5
5BB
  8
DEFPOINTS
  6
BYBLOCK
 62
     0
 10
1875.862188
 20
1404.414693
 30
0.0
  0
POINT
  5
5BC
  8
DEFPOINTS
  6
BYBLOCK
 62
     0
 10
1875.862188
 20
1374.214693
 30
0.0
  0
POINT
  5
5BD
  8
DEFPOINTS
  6
BYBLOCK
 62
     0
 10
1904.212109
 20
1374.214693
 30
0.0
  0
ENDBLK
  5
5BE
  8
0
  0
BLOCK
  8
0
  2
*D14
 70
     1
 10
0.0
 20
0.0
 30
0.0
  3
*D14
  1

  0
LINE
  5
59D
  8
0
  6
BYBLOCK
 62
     0
 10
1876.487188
 20
1374.214693
 30
0.0
 11
1905.462109
 21
1374.214693
 31
0.0
  0
LINE
  5
59E
  8
0
  6
BYBLOCK
 62
     0
 10
1891.487188
 20
1369.214693
 30
0.0
 11
1905.462109
 21
1369.214693
 31
0.0
  0
LINE
  5
59F
  8
0
  6
BYBLOCK
 62
     0
 10
1904.212109
 20
1377.214693
 30
0.0
 11
1904.212109
 21
1380.214693
 31
0.0
  0
LINE
  5
5A0
  8
0
  6
BYBLOCK
 62
     0
 10
1904.212109
 20
1366.214693
 30
0.0
 11
1904.212109
 21
1363.214693
 31
0.0
  0
LINE
  5
5A1
  8
0
  6
BYBLOCK
 62
     0
 10
1904.212109
 20
1374.214693
 30
0.0
 11
1904.212109
 21
1369.214693
 31
0.0
  0
SOLID
  5
5A2
  8
0
  6
BYBLOCK
 62
     0
 10
1903.712109
 20
1377.214693
 30
0.0
 11
1904.712109
 21
1377.214693
 31
0.0
 12
1904.212109
 22
1374.214693
 32
0.0
 13
1904.212109
 23
1374.214693
 33
0.0
  0
SOLID
  5
5A3
  8
0
  6
BYBLOCK
 62
     0
 10
1903.712109
 20
1366.214693
 30
0.0
 11
1904.712109
 21
1366.214693
 31
0.0
 12
1904.212109
 22
1369.214693
 32
0.0
 13
1904.212109
 23
1369.214693
 33
0.0
  0
TEXT
  8
0
  40
3
  5
D5C
  62
0
  72
0
  71
0
 10
1896.09
 20
1366.40
 30
0.000000
  1
5
  0
POINT
  5
5A5
  8
DEFPOINTS
  6
BYBLOCK
 62
     0
 10
1875.862188
 20
1374.214693
 30
0.0
  0
POINT
  5
5A6
  8
DEFPOINTS
  6
BYBLOCK
 62
     0
 10
1890.862188
 20
1369.214693
 30
0.0
  0
POINT
  5
5A7
  8
DEFPOINTS
  6
BYBLOCK
 62
     0
 10
1904.212109
 20
1369.214693
 30
0.0
  0
ENDBLK
  5
5A8
  8
0
  0
BLOCK
  8
0
  2
*D15
 70
     1
 10
0.0
 20
0.0
 30
0.0
  3
*D15
  1

  0
LINE
  5
5AA
  8
0
  6
BYBLOCK
 62
     0
 10
1876.487188
 20
1404.414693
 30
0.0
 11
1904.615169
 21
1404.414693
 31
0.0
  0
LINE
  5
5AB
  8
0
  6
BYBLOCK
 62
     0
 10
1876.487188
 20
1484.214693
 30
0.0
 11
1904.615169
 21
1484.214693
 31
0.0
  0
LINE
  5
5AC
  8
0
  6
BYBLOCK
 62
     0
 10
1903.365169
 20
1407.414693
 30
0.0
 11
1903.365169
 21
1481.214693
 31
0.0
  0
SOLID
  5
5AD
  8
0
  6
BYBLOCK
 62
     0
 10
1902.865169
 20
1407.414693
 30
0.0
 11
1903.865169
 21
1407.414693
 31
0.0
 12
1903.365169
 22
1404.414693
 32
0.0
 13
1903.365169
 23
1404.414693
 33
0.0
  0
SOLID
  5
5AE
  8
0
  6
BYBLOCK
 62
     0
 10
1902.865169
 20
1481.214693
 30
0.0
 11
1903.865169
 21
1481.214693
 31
0.0
 12
1903.365169
 22
1484.214693
 32
0.0
 13
1903.365169
 23
1484.214693
 33
0.0
  0
TEXT
  8
0
  40
3
  5
D5D
  62
0
  72
0
  71
0
 10
1895.24
 20
1439.00
 30
0.000000
  1
79.8
  0
POINT
  5
5B0
  8
DEFPOINTS
  6
BYBLOCK
 62
     0
 10
1875.862188
 20
1404.414693
 30
0.0
  0
POINT
  5
5B1
  8
DEFPOINTS
  6
BYBLOCK
 62
     0
 10
1875.862188
 20
1484.214693
 30
0.0
  0
POINT
  5
5B2
  8
DEFPOINTS
  6
BYBLOCK
 62
     0
 10
1903.365169
 20
1484.214693
 30
0.0
  0
ENDBLK
  5
5B3
  8
0
  0
BLOCK
  8
0
  2
*D16
 70
     1
 10
0.0
 20
0.0
 30
0.0
  3
*D16
  1

  0
LINE
  5
572
  8
0
  6
BYBLOCK
 62
     0
 10
1876.487188
 20
1514.414693
 30
0.0
 11
1904.527591
 21
1514.414693
 31
0.0
  0
LINE
  5
573
  8
0
  6
BYBLOCK
 62
     0
 10
1876.487188
 20
1484.214693
 30
0.0
 11
1904.527591
 21
1484.214693
 31
0.0
  0
LINE
  5
574
  8
0
  6
BYBLOCK
 62
     0
 10
1903.277591
 20
1511.414693
 30
0.0
 11
1903.277591
 21
1487.214693
 31
0.0
  0
SOLID
  5
575
  8
0
  6
BYBLOCK
 62
     0
 10
1902.777591
 20
1511.414693
 30
0.0
 11
1903.777591
 21
1511.414693
 31
0.0
 12
1903.277591
 22
1514.414693
 32
0.0
 13
1903.277591
 23
1514.414693
 33
0.0
  0
SOLID
  5
576
  8
0
  6
BYBLOCK
 62
     0
 10
1902.777591
 20
1487.214693
 30
0.0
 11
1903.777591
 21
1487.214693
 31
0.0
 12
1903.277591
 22
1484.214693
 32
0.0
 13
1903.277591
 23
1484.214693
 33
0.0
  0
TEXT
  8
0
  40
3
  5
D5E
  62
0
  72
0
  71
0
 10
1895.15
 20
1494.00
 30
0.000000
  1
30.2
  0
POINT
  5
578
  8
DEFPOINTS
  6
BYBLOCK
 62
     0
 10
1875.862188
 20
1514.414693
 30
0.0
  0
POINT
  5
579
  8
DEFPOINTS
  6
BYBLOCK
 62
     0
 10
1875.862188
 20
1484.214693
 30
0.0
  0
POINT
  5
57A
  8
DEFPOINTS
  6
BYBLOCK
 62
     0
 10
1903.277591
 20
1484.214693
 30
0.0
  0
ENDBLK
  5
57B
  8
0
  0
BLOCK
  8
0
  2
*D17
 70
     1
 10
0.0
 20
0.0
 30
0.0
  3
*D17
  1

  0
LINE
  5
5E3
  8
0
  6
BYBLOCK
 62
     0
 10
1876.487188
 20
1514.414693
 30
0.0
 11
1904.372174
 21
1514.414693
 31
0.0
  0
LINE
  5
5E4
  8
0
  6
BYBLOCK
 62
     0
 10
1891.487188
 20
1519.414693
 30
0.0
 11
1904.372174
 21
1519.414693
 31
0.0
  0
LINE
  5
5E5
  8
0
  6
BYBLOCK
 62
     0
 10
1903.122174
 20
1511.414693
 30
0.0
 11
1903.122174
 21
1508.414693
 31
0.0
  0
LINE
  5
5E6
  8
0
  6
BYBLOCK
 62
     0
 10
1903.122174
 20
1522.414693
 30
0.0
 11
1903.122174
 21
1525.414693
 31
0.0
  0
LINE
  5
5E7
  8
0
  6
BYBLOCK
 62
     0
 10
1903.122174
 20
1514.414693
 30
0.0
 11
1903.122174
 21
1519.414693
 31
0.0
  0
SOLID
  5
5E8
  8
0
  6
BYBLOCK
 62
     0
 10
1902.622174
 20
1511.414693
 30
0.0
 11
1903.622174
 21
1511.414693
 31
0.0
 12
1903.122174
 22
1514.414693
 32
0.0
 13
1903.122174
 23
1514.414693
 33
0.0
  0
SOLID
  5
5E9
  8
0
  6
BYBLOCK
 62
     0
 10
1902.622174
 20
1522.414693
 30
0.0
 11
1903.622174
 21
1522.414693
 31
0.0
 12
1903.122174
 22
1519.414693
 32
0.0
 13
1903.122174
 23
1519.414693
 33
0.0
  0
TEXT
  8
0
  40
3
  5
D5F
  62
0
  72
0
  71
0
 10
1895.00
 20
1511.60
 30
0.000000
  1
5
  0
POINT
  5
5EB
  8
DEFPOINTS
  6
BYBLOCK
 62
     0
 10
1875.862188
 20
1514.414693
 30
0.0
  0
POINT
  5
5EC
  8
DEFPOINTS
  6
BYBLOCK
 62
     0
 10
1890.862188
 20
1519.414693
 30
0.0
  0
POINT
  5
5ED
  8
DEFPOINTS
  6
BYBLOCK
 62
     0
 10
1903.122174
 20
1519.414693
 30
0.0
  0
ENDBLK
  5
5EE
  8
0
  0
BLOCK
  8
0
  2
*D18
 70
     1
 10
0.0
 20
0.0
 30
0.0
  3
*D18
  1

  0
LINE
  5
55C
  8
0
  6
BYBLOCK
 62
     0
 10
1770.237188
 20
1519.414693
 30
0.0
 11
1763.171517
 21
1519.414693
 31
0.0
  0
LINE
  5
55D
  8
0
  6
BYBLOCK
 62
     0
 10
1770.237188
 20
1369.214693
 30
0.0
 11
1763.171517
 21
1369.214693
 31
0.0
  0
LINE
  5
55E
  8
0
  6
BYBLOCK
 62
     0
 10
1764.421517
 20
1516.414693
 30
0.0
 11
1764.421517
 21
1372.214693
 31
0.0
  0
SOLID
  5
55F
  8
0
  6
BYBLOCK
 62
     0
 10
1763.921517
 20
1516.414693
 30
0.0
 11
1764.921517
 21
1516.414693
 31
0.0
 12
1764.421517
 22
1519.414693
 32
0.0
 13
1764.421517
 23
1519.414693
 33
0.0
  0
SOLID
  5
560
  8
0
  6
BYBLOCK
 62
     0
 10
1763.921517
 20
1372.214693
 30
0.0
 11
1764.921517
 21
1372.214693
 31
0.0
 12
1764.421517
 22
1369.214693
 32
0.0
 13
1764.421517
 23
1369.214693
 33
0.0
  0
TEXT
  8
0
  40
3
  5
D60
  62
0
  72
0
  71
0
 10
1756.30
 20
1439.00
 30
0.000000
  1
150.2
  0
POINT
  5
562
  8
DEFPOINTS
  6
BYBLOCK
 62
     0
 10
1770.862188
 20
1519.414693
 30
0.0
  0
POINT
  5
563
  8
DEFPOINTS
  6
BYBLOCK
 62
     0
 10
1770.862188
 20
1369.214693
 30
0.0
  0
POINT
  5
564
  8
DEFPOINTS
  6
BYBLOCK
 62
     0
 10
1764.421517
 20
1369.214693
 30
0.0
  0
ENDBLK
  5
565
  8
0
  0
BLOCK
  8
0
  2
*D19
 70
     1
 10
0.0
 20
0.0
 30
0.0
  3
*D19
  1

  0
LINE
  5
D07
  8
0
  6
BYBLOCK
 62
     0
 10
1786.487188
 20
1499.314693
 30
0.0
 11
1867.682803
 21
1499.314693
 31
0.0
  0
LINE
  5
D08
  8
0
  6
BYBLOCK
 62
     0
 10
1786.487188
 20
1389.314693
 30
0.0
 11
1867.682803
 21
1389.314693
 31
0.0
  0
LINE
  5
D09
  8
0
  6
BYBLOCK
 62
     0
 10
1866.432803
 20
1496.314693
 30
0.0
 11
1866.432803
 21
1392.314693
 31
0.0
  0
SOLID
  5
D0A
  8
0
  6
BYBLOCK
 62
     0
 10
1865.932803
 20
1496.314693
 30
0.0
 11
1866.932803
 21
1496.314693
 31
0.0
 12
1866.432803
 22
1499.314693
 32
0.0
 13
1866.432803
 23
1499.314693
 33
0.0
  0
SOLID
  5
D0B
  8
0
  6
BYBLOCK
 62
     0
 10
1865.932803
 20
1392.314693
 30
0.0
 11
1866.932803
 21
1392.314693
 31
0.0
 12
1866.432803
 22
1389.314693
 32
0.0
 13
1866.432803
 23
1389.314693
 33
0.0
  0
TEXT
  8
0
  40
3
  5
D61
  62
0
  72
0
  71
0
 10
1858.31
 20
1439.00
 30
0.000000
  1
110
  0
POINT
  5
D0D
  8
DEFPOINTS
  6
BYBLOCK
 62
     0
 10
1785.862188
 20
1499.314693
 30
0.0
  0
POINT
  5
D0E
  8
DEFPOINTS
  6
BYBLOCK
 62
     0
 10
1785.862188
 20
1389.314693
 30
0.0
  0
POINT
  5
D0F
  8
DEFPOINTS
  6
BYBLOCK
 62
     0
 10
1866.432803
 20
1389.314693
 30
0.0
  0
ENDBLK
  5
D10
  8
0
  0
BLOCK
  8
0
  2
*D20
 70
     1
 10
0.0
 20
0.0
 30
0.0
  3
*D20
  1

  0
LINE
  5
5F1
  8
0
  6
BYBLOCK
 62
     0
 10
1875.862188
 20
1515.039693
 30
0.0
 11
1875.862188
 21
1538.179413
 31
0.0
  0
LINE
  5
5F2
  8
0
  6
BYBLOCK
 62
     0
 10
1890.862188
 20
1520.039693
 30
0.0
 11
1890.862188
 21
1538.179413
 31
0.0
  0
LINE
  5
5F3
  8
0
  6
BYBLOCK
 62
     0
 10
1878.862188
 20
1536.929413
 30
0.0
 11
1887.862188
 21
1536.929413
 31
0.0
  0
SOLID
  5
5F4
  8
0
  6
BYBLOCK
 62
     0
 10
1878.862188
 20
1537.429413
 30
0.0
 11
1878.862188
 21
1536.429413
 31
0.0
 12
1875.862188
 22
1536.929413
 32
0.0
 13
1875.862188
 23
1536.929413
 33
0.0
  0
SOLID
  5
5F5
  8
0
  6
BYBLOCK
 62
     0
 10
1887.862188
 20
1537.429413
 30
0.0
 11
1887.862188
 21
1536.429413
 31
0.0
 12
1890.862188
 22
1536.929413
 32
0.0
 13
1890.862188
 23
1536.929413
 33
0.0
  0
TEXT
  8
0
  40
3
  5
D62
  62
0
  72
0
  71
0
 10
1877.36
 20
1533.74
 30
0.000000
  1
15
  0
POINT
  5
5F7
  8
DEFPOINTS
  6
BYBLOCK
 62
     0
 10
1875.862188
 20
1514.414693
 30
0.0
  0
POINT
  5
5F8
  8
DEFPOINTS
  6
BYBLOCK
 62
     0
 10
1890.862188
 20
1519.414693
 30
0.0
  0
POINT
  5
5F9
  8
DEFPOINTS
  6
BYBLOCK
 62
     0
 10
1890.862188
 20
1536.929413
 30
0.0
  0
ENDBLK
  5
5FA
  8
0
  0
BLOCK
  8
0
  2
*D21
 70
     1
 10
0.0
 20
0.0
 30
0.0
  3
*D21
  1

  0
LINE
  5
5FE
  8
0
  6
BYBLOCK
 62
     0
 10
1785.862188
 20
1515.039693
 30
0.0
 11
1785.862188
 21
1537.676861
 31
0.0
  0
LINE
  5
5FF
  8
0
  6
BYBLOCK
 62
     0
 10
1875.862188
 20
1515.039693
 30
0.0
 11
1875.862188
 21
1537.676861
 31
0.0
  0
LINE
  5
600
  8
0
  6
BYBLOCK
 62
     0
 10
1788.862188
 20
1536.426861
 30
0.0
 11
1872.862188
 21
1536.426861
 31
0.0
  0
SOLID
  5
601
  8
0
  6
BYBLOCK
 62
     0
 10
1788.862188
 20
1536.926861
 30
0.0
 11
1788.862188
 21
1535.926861
 31
0.0
 12
1785.862188
 22
1536.426861
 32
0.0
 13
1785.862188
 23
1536.426861
 33
0.0
  0
SOLID
  5
602
  8
0
  6
BYBLOCK
 62
     0
 10
1872.862188
 20
1536.926861
 30
0.0
 11
1872.862188
 21
1535.926861
 31
0.0
 12
1875.862188
 22
1536.426861
 32
0.0
 13
1875.862188
 23
1536.426861
 33
0.0
  0
TEXT
  8
0
  40
3
  5
D63
  62
0
  72
0
  71
0
 10
1824.86
 20
1533.24
 30
0.000000
  1
90
  0
POINT
  5
604
  8
DEFPOINTS
  6
BYBLOCK
 62
     0
 10
1785.862188
 20
1514.414693
 30
0.0
  0
POINT
  5
605
  8
DEFPOINTS
  6
BYBLOCK
 62
     0
 10
1875.862188
 20
1514.414693
 30
0.0
  0
POINT
  5
606
  8
DEFPOINTS
  6
BYBLOCK
 62
     0
 10
1875.862188
 20
1536.426861
 30
0.0
  0
ENDBLK
  5
607
  8
0
  0
BLOCK
  8
0
  2
*D22
 70
     1
 10
0.0
 20
0.0
 30
0.0
  3
*D22
  1

  0
LINE
  5
CEE
  8
0
  6
BYBLOCK
 62
     0
 10
1705.707192
 20
1471.685401
 30
0.0
 11
1705.707192
 21
1475.935401
 31
0.0
  0
LINE
  5
CEF
  8
0
  6
BYBLOCK
 62
     0
 10
1738.357192
 20
1471.685401
 30
0.0
 11
1738.357192
 21
1475.935401
 31
0.0
  0
LINE
  5
CF0
  8
0
  6
BYBLOCK
 62
     0
 10
1735.357192
 20
1474.685401
 30
0.0
 11
1708.707192
 21
1474.685401
 31
0.0
  0
LINE
  5
CF1
  8
0
  6
BYBLOCK
 62
     0
 10
1705.707192
 20
1474.685401
 30
0.0
 11
1684.118966
 21
1474.685401
 31
0.0
  0
SOLID
  5
CF2
  8
0
  6
BYBLOCK
 62
     0
 10
1735.357192
 20
1475.185401
 30
0.0
 11
1735.357192
 21
1474.185401
 31
0.0
 12
1738.357192
 22
1474.685401
 32
0.0
 13
1738.357192
 23
1474.685401
 33
0.0
  0
SOLID
  5
CF3
  8
0
  6
BYBLOCK
 62
     0
 10
1708.707192
 20
1475.185401
 30
0.0
 11
1708.707192
 21
1474.185401
 31
0.0
 12
1705.707192
 22
1474.685401
 32
0.0
 13
1705.707192
 23
1474.685401
 33
0.0
  0
TEXT
  8
0
  40
3
  5
D64
  62
0
  72
0
  71
0
 10
1684.74
 20
1471.50
 30
0.000000
  1
32.65
  0
POINT
  5
CF5
  8
DEFPOINTS
  6
BYBLOCK
 62
     0
 10
1705.707192
 20
1471.060401
 30
0.0
  0
POINT
  5
CF6
  8
DEFPOINTS
  6
BYBLOCK
 62
     0
 10
1738.357192
 20
1471.060401
 30
0.0
  0
POINT
  5
CF7
  8
DEFPOINTS
  6
BYBLOCK
 62
     0
 10
1738.357192
 20
1474.685401
 30
0.0
  0
ENDBLK
  5
CF8
  8
0
  0
BLOCK
  8
0
  2
*D23
 70
     1
 10
0.0
 20
0.0
 30
0.0
  3
*D23
  1

  0
LINE
  5
D13
  8
0
  6
BYBLOCK
 62
     0
 10
1854.687188
 20
1471.060401
 30
0.0
 11
1861.556859
 21
1471.060401
 31
0.0
  0
LINE
  5
D14
  8
0
  6
BYBLOCK
 62
     0
 10
1854.687188
 20
1417.768986
 30
0.0
 11
1861.556859
 21
1417.768986
 31
0.0
  0
LINE
  5
D15
  8
0
  6
BYBLOCK
 62
     0
 10
1860.306859
 20
1468.060401
 30
0.0
 11
1860.306859
 21
1420.768986
 31
0.0
  0
SOLID
  5
D16
  8
0
  6
BYBLOCK
 62
     0
 10
1859.806859
 20
1468.060401
 30
0.0
 11
1860.806859
 21
1468.060401
 31
0.0
 12
1860.306859
 22
1471.060401
 32
0.0
 13
1860.306859
 23
1471.060401
 33
0.0
  0
SOLID
  5
D17
  8
0
  6
BYBLOCK
 62
     0
 10
1859.806859
 20
1420.768986
 30
0.0
 11
1860.806859
 21
1420.768986
 31
0.0
 12
1860.306859
 22
1417.768986
 32
0.0
 13
1860.306859
 23
1417.768986
 33
0.0
  0
TEXT
  8
0
  40
3
  5
D65
  62
0
  72
0
  71
0
 10
1852.18
 20
1439.10
 30
0.000000
  1
53.29
  0
POINT
  5
D19
  8
DEFPOINTS
  6
BYBLOCK
 62
     0
 10
1854.062188
 20
1471.060401
 30
0.0
  0
POINT
  5
D1A
  8
DEFPOINTS
  6
BYBLOCK
 62
     0
 10
1854.062188
 20
1417.768986
 30
0.0
  0
POINT
  5
D1B
  8
DEFPOINTS
  6
BYBLOCK
 62
     0
 10
1860.306859
 20
1417.768986
 30
0.0
  0
ENDBLK
  5
D1C
  8
0
  0
BLOCK
  8
0
  2
*D24
 70
     1
 10
0.0
 20
0.0
 30
0.0
  3
*D24
  1

  0
LINE
  5
D20
  8
0
  6
BYBLOCK
 62
     0
 10
1807.662188
 20
1471.685401
 30
0.0
 11
1807.662188
 21
1477.359969
 31
0.0
  0
LINE
  5
D21
  8
0
  6
BYBLOCK
 62
     0
 10
1845.062188
 20
1471.685401
 30
0.0
 11
1845.062188
 21
1477.359969
 31
0.0
  0
LINE
  5
D22
  8
0
  6
BYBLOCK
 62
     0
 10
1810.662188
 20
1476.109969
 30
0.0
 11
1842.062188
 21
1476.109969
 31
0.0
  0
SOLID
  5
D23
  8
0
  6
BYBLOCK
 62
     0
 10
1810.662188
 20
1476.609969
 30
0.0
 11
1810.662188
 21
1475.609969
 31
0.0
 12
1807.662188
 22
1476.109969
 32
0.0
 13
1807.662188
 23
1476.109969
 33
0.0
  0
SOLID
  5
D24
  8
0
  6
BYBLOCK
 62
     0
 10
1842.062188
 20
1476.609969
 30
0.0
 11
1842.062188
 21
1475.609969
 31
0.0
 12
1845.062188
 22
1476.109969
 32
0.0
 13
1845.062188
 23
1476.109969
 33
0.0
  0
TEXT
  8
0
  40
3
  5
D66
  62
0
  72
0
  71
0
 10
1820.36
 20
1472.92
 30
0.000000
  1
37.4
  0
POINT
  5
D26
  8
DEFPOINTS
  6
BYBLOCK
 62
     0
 10
1807.662188
 20
1471.060401
 30
0.0
  0
POINT
  5
D27
  8
DEFPOINTS
  6
BYBLOCK
 62
     0
 10
1845.062188
 20
1471.060401
 30
0.0
  0
POINT
  5
D28
  8
DEFPOINTS
  6
BYBLOCK
 62
     0
 10
1845.062188
 20
1476.109969
 30
0.0
  0
ENDBLK
  5
D29
  8
0
  0
ENDSEC
  0
SECTION
  2
ENTITIES
  0
LINE
  5
175
  8
0
  6
DASHED2
 10
1572.670247
 20
1483.414693
 30
0.0
 11
1542.670247
 21
1483.414693
 31
0.0
  0
LINE
  5
1B4
  8
0
 10
1572.670247
 20
1515.414693
 30
0.0
 11
1572.670247
 21
1483.414693
 31
0.0
  0
LINE
  5
1B5
  8
0
 10
1542.670247
 20
1515.414693
 30
0.0
 11
1542.670247
 21
1483.414693
 31
0.0
  0
ARC
  5
1C5
  8
0
 10
1612.683838
 20
1495.414693
 30
0.0
 40
20.0
 50
323.130102
 51
216.869898
  0
LINE
  5
1C9
  8
0
 10
1628.683838
 20
1483.414693
 30
0.0
 11
1596.683838
 21
1483.414693
 31
0.0
  0
LINE
  5
1CA
  8
0
 10
1572.670247
 20
1515.414693
 30
0.0
 11
1542.670247
 21
1515.414693
 31
0.0
  0
CIRCLE
  5
1CC
  8
0
 10
1612.683838
 20
1500.714693
 30
0.0
 40
12.0
  0
CIRCLE
  5
1EC
  8
0
 10
1612.683838
 20
1500.714693
 30
0.0
 40
8.0
  0
LINE
  5
1ED
  8
0
  6
DASHED2
 10
1572.670247
 20
1512.714693
 30
0.0
 11
1542.670247
 21
1512.714693
 31
0.0
  0
LINE
  5
1EE
  8
0
  6
DASHED2
 10
1572.670247
 20
1508.714693
 30
0.0
 11
1542.670247
 21
1508.714693
 31
0.0
  0
LINE
  5
1EF
  8
0
  6
DASHED2
 10
1572.670247
 20
1492.714693
 30
0.0
 11
1542.670247
 21
1492.714693
 31
0.0
  0
LINE
  5
1F0
  8
0
  6
DASHED2
 10
1572.670247
 20
1488.714693
 30
0.0
 11
1542.670247
 21
1488.714693
 31
0.0
  0
LINE
  5
230
  8
0
 10
1599.683838
 20
1496.914693
 30
0.0
 11
1595.683838
 21
1496.914693
 31
0.0
  0
LINE
  5
231
  8
0
 10
1595.683838
 20
1496.914693
 30
0.0
 11
1597.683838
 21
1498.414693
 31
0.0
  0
LINE
  5
232
  8
0
 10
1599.683838
 20
1496.914693
 30
0.0
 11
1597.683838
 21
1498.414693
 31
0.0
  0
LINE
  5
235
  8
0
 10
1595.683838
 20
1496.914693
 30
0.0
 11
1595.683838
 21
1484.879039
 31
0.0
  0
LINE
  5
236
  8
0
 10
1596.183838
 20
1497.289693
 30
0.0
 11
1596.183838
 21
1484.112039
 31
0.0
  0
LINE
  5
237
  8
0
 10
1599.183838
 20
1497.289693
 30
0.0
 11
1599.183838
 21
1483.414693
 31
0.0
  0
LINE
  5
238
  8
0
 10
1599.683838
 20
1496.914693
 30
0.0
 11
1599.683838
 21
1483.414693
 31
0.0
  0
LINE
  5
23E
  8
0
 10
1625.683838
 20
1496.914693
 30
0.0
 11
1625.683838
 21
1483.414693
 31
0.0
  0
LINE
  5
23F
  8
0
 10
1626.183838
 20
1497.289693
 30
0.0
 11
1626.183838
 21
1483.414693
 31
0.0
  0
LINE
  5
240
  8
0
 10
1629.683838
 20
1496.914693
 30
0.0
 11
1629.683838
 21
1484.879039
 31
0.0
  0
LINE
  5
241
  8
0
 10
1629.183838
 20
1497.289693
 30
0.0
 11
1629.183838
 21
1484.112039
 31
0.0
  0
LINE
  5
242
  8
0
 10
1625.683838
 20
1496.914693
 30
0.0
 11
1627.683838
 21
1498.414693
 31
0.0
  0
LINE
  5
243
  8
0
 10
1629.683838
 20
1496.914693
 30
0.0
 11
1627.683838
 21
1498.414693
 31
0.0
  0
LINE
  5
244
  8
0
 10
1625.683838
 20
1496.914693
 30
0.0
 11
1629.683838
 21
1496.914693
 31
0.0
  0
DIMENSION
  5
251
  8
MATEN
  2
*D0
 10
1627.683838
 20
1526.379685
 30
0.0
 11
1612.683838
 21
1528.504685
 31
0.0
 70
     0
 13
1597.683838
 23
1498.414693
 33
0.0
 14
1627.683838
 24
1498.414693
 34
0.0
1001
ACAD
1000
DSTYLE
1002
{
1070
    78
1070
     8
1070
   140
1040
3.0
1070
    74
1070
     0
1070
   172
1070
     1
1070
    73
1070
     0
1070
    77
1070
     1
1070
   147
1040
0.625
1070
    42
1040
0.625
1070
    44
1040
1.25
1070
    43
1040
3.75
1070
   271
1070
     2
1070
   141
1040
2.5
1070
   275
1070
     1
1070
    41
1040
3.0
1070
   273
1070
     8
1070
   274
1070
     4
1070
   143
1040
0.0394
1070
   171
1070
     4
1002
}
  0
DIMENSION
  5
260
  8
MATEN
  2
*D1
 10
1644.531697
 20
1498.414693
 30
0.0
 11
1642.406697
 21
1490.914693
 31
0.0
 70
     0
 13
1628.683838
 23
1483.414693
 33
0.0
 14
1627.683838
 24
1498.414693
 34
0.0
 50
90.0
1001
ACAD
1000
DSTYLE
1002
{
1070
    78
1070
     8
1070
   140
1040
3.0
1070
    74
1070
     0
1070
   172
1070
     1
1070
    73
1070
     0
1070
    77
1070
     1
1070
   147
1040
0.625
1070
    42
1040
0.625
1070
    44
1040
1.25
1070
    43
1040
3.75
1070
   271
1070
     2
1070
   141
1040
2.5
1070
   275
1070
     1
1070
    41
1040
3.0
1070
   273
1070
     8
1070
   274
1070
     4
1070
   143
1040
0.0394
1070
   171
1070
     4
1002
}
  0
DIMENSION
  5
26F
  8
MATEN
  2
*D2
 10
1599.683838
 20
1476.225832
 30
0.0
 11
1621.975505
 21
1479.350832
 31
0.0
 70
     0
 13
1595.683838
 23
1484.879039
 33
0.0
 14
1599.683838
 24
1483.414693
 34
0.0
1001
ACAD
1000
DSTYLE
1002
{
1070
    78
1070
     8
1070
   140
1040
5.0
1070
    74
1070
     0
1070
   172
1070
     1
1070
    73
1070
     0
1070
    77
1070
     1
1070
   147
1040
0.625
1070
    42
1040
0.625
1070
    44
1040
1.25
1070
    43
1040
3.75
1070
   271
1070
     2
1070
   141
1040
2.5
1070
   275
1070
     1
1070
    41
1040
10.0
1070
   273
1070
     8
1070
   274
1070
     4
1070
   143
1040
0.0394
1070
   171
1070
     4
1002
}
  0
DIMENSION
  5
2A9
  8
MATEN
  2
*D3
 10
1597.834365
 20
1482.017188
 30
0.0
 11
1647.337265
 21
1526.67974
 31
0.0
 70
   131
 15
1627.533311
 25
1508.812199
 35
0.0
 40
0.0
1001
ACAD
1000
DSTYLE
1002
{
1070
    78
1070
     8
1070
   288
1070
     1
1070
   140
1040
3.0
1070
    74
1070
     0
1070
   172
1070
     1
1070
    73
1070
     0
1070
    77
1070
     1
1070
   147
1040
0.625
1070
    42
1040
0.625
1070
    44
1040
1.25
1070
    43
1040
3.75
1070
   271
1070
     2
1070
   141
1040
2.5
1070
   275
1070
     1
1070
    41
1040
3.0
1070
   273
1070
     8
1070
   274
1070
     4
1070
   143
1040
0.0394
1070
   171
1070
     4
1002
}
  0
DIMENSION
  5
2B5
  8
MATEN
  2
*D4
 10
1604.995145
 20
1498.504715
 30
0.0
 11
1644.717164
 21
1509.922102
 31
0.0
 70
   131
 15
1620.372531
 25
1502.924671
 35
0.0
 40
0.0
1001
ACAD
1000
DSTYLE
1002
{
1070
    78
1070
     8
1070
   288
1070
     1
1070
   140
1040
3.0
1070
    74
1070
     0
1070
   172
1070
     1
1070
    73
1070
     0
1070
    77
1070
     1
1070
   147
1040
0.625
1070
    42
1040
0.625
1070
    44
1040
1.25
1070
    43
1040
3.75
1070
   271
1070
     2
1070
   141
1040
2.5
1070
   275
1070
     1
1070
    41
1040
3.0
1070
   273
1070
     8
1070
   274
1070
     4
1070
   143
1040
0.0394
1070
   171
1070
     4
1002
}
  0
DIMENSION
  5
2C2
  8
MATEN
  2
*D5
 10
1572.670247
 20
1527.98893
 30
0.0
 11
1557.670247
 21
1530.11393
 31
0.0
 70
     0
 13
1542.670247
 23
1515.414693
 33
0.0
 14
1572.670247
 24
1515.414693
 34
0.0
1001
ACAD
1000
DSTYLE
1002
{
1070
    78
1070
     8
1070
   140
1040
3.0
1070
    74
1070
     0
1070
   172
1070
     1
1070
    73
1070
     0
1070
    77
1070
     1
1070
   147
1040
0.625
1070
    42
1040
0.625
1070
    44
1040
1.25
1070
    43
1040
3.75
1070
   271
1070
     2
1070
   141
1040
2.5
1070
   275
1070
     1
1070
    41
1040
3.0
1070
   273
1070
     8
1070
   274
1070
     4
1070
   143
1040
0.0394
1070
   171
1070
     4
1002
}
  0
DIMENSION
  5
2E0
  8
MATEN
  2
*D6
 10
1596.683838
 20
1501.869587
 30
0.0
 11
1589.558838
 21
1503.994587
 31
0.0
 70
     0
 13
1597.683838
 23
1498.414693
 33
0.0
 14
1596.683838
 24
1483.414693
 34
0.0
1001
ACAD
1000
DSTYLE
1002
{
1070
    78
1070
     8
1070
   140
1040
3.0
1070
    74
1070
     0
1070
   172
1070
     1
1070
    73
1070
     0
1070
    77
1070
     1
1070
   147
1040
0.625
1070
    42
1040
0.625
1070
    44
1040
1.25
1070
    43
1040
3.75
1070
   271
1070
     2
1070
   141
1040
2.5
1070
   275
1070
     1
1070
    41
1040
3.0
1070
   273
1070
     8
1070
   274
1070
     4
1070
   143
1040
0.0394
1070
   171
1070
     4
1002
}
  0
LINE
  5
2E9
  8
0
 10
1724.482192
 20
1515.914693
 30
0.0
 11
1737.659847
 21
1515.914693
 31
0.0
  0
LINE
  5
2EA
  8
0
 10
1724.857192
 20
1516.414693
 30
0.0
 11
1736.892846
 21
1516.414693
 31
0.0
  0
LINE
  5
2EB
  8
0
 10
1724.482192
 20
1512.914693
 30
0.0
 11
1738.357192
 21
1512.914693
 31
0.0
  0
LINE
  5
2EC
  8
0
 10
1724.857192
 20
1512.414693
 30
0.0
 11
1738.357192
 21
1512.414693
 31
0.0
  0
LINE
  5
2ED
  8
0
 10
1724.857192
 20
1486.414693
 30
0.0
 11
1738.357192
 21
1486.414693
 31
0.0
  0
LINE
  5
2EE
  8
0
 10
1724.482192
 20
1485.914693
 30
0.0
 11
1738.357192
 21
1485.914693
 31
0.0
  0
LINE
  5
2EF
  8
0
 10
1724.482192
 20
1482.914693
 30
0.0
 11
1737.659847
 21
1482.914693
 31
0.0
  0
LINE
  5
2F0
  8
0
 10
1724.857192
 20
1482.414693
 30
0.0
 11
1736.892846
 21
1482.414693
 31
0.0
  0
ARC
  5
2F1
  8
0
 10
1726.357192
 20
1499.414693
 30
0.0
 40
20.0
 50
53.130102
 51
306.869898
  0
LINE
  5
2F3
  8
0
 10
1738.357192
 20
1515.414693
 30
0.0
 11
1738.357192
 21
1483.414693
 31
0.0
  0
CIRCLE
  5
2F6
  8
0
 10
1721.057192
 20
1499.414693
 30
0.0
 40
8.0
  0
CIRCLE
  5
2F7
  8
0
 10
1721.057192
 20
1499.414693
 30
0.0
 40
12.0
  0
LINE
  5
2F8
  8
0
 10
1724.857192
 20
1486.414693
 30
0.0
 11
1723.357192
 21
1484.414693
 31
0.0
  0
LINE
  5
2F9
  8
0
 10
1724.857192
 20
1482.414693
 30
0.0
 11
1723.357192
 21
1484.414693
 31
0.0
  0
LINE
  5
2FA
  8
0
 10
1724.857192
 20
1486.414693
 30
0.0
 11
1724.857192
 21
1482.414693
 31
0.0
  0
LINE
  5
2FB
  8
0
 10
1724.857192
 20
1512.414693
 30
0.0
 11
1724.857192
 21
1516.414693
 31
0.0
  0
LINE
  5
2FC
  8
0
 10
1724.857192
 20
1516.414693
 30
0.0
 11
1723.357192
 21
1514.414693
 31
0.0
  0
LINE
  5
2FD
  8
0
 10
1724.857192
 20
1512.414693
 30
0.0
 11
1723.357192
 21
1514.414693
 31
0.0
  0
LINE
  5
34A
  8
0
 10
1724.857192
 20
1376.414693
 30
0.0
 11
1723.357192
 21
1374.414693
 31
0.0
  0
LINE
  5
34B
  8
0
 10
1724.857192
 20
1376.414693
 30
0.0
 11
1724.857192
 21
1372.414693
 31
0.0
  0
LINE
  5
34C
  8
0
 10
1738.357192
 20
1405.414693
 30
0.0
 11
1738.357192
 21
1373.414693
 31
0.0
  0
ARC
  5
34D
  8
0
 10
1726.357192
 20
1389.414693
 30
0.0
 40
20.0
 50
53.130102
 51
306.869898
  0
LINE
  5
34E
  8
0
 10
1724.857192
 20
1372.414693
 30
0.0
 11
1723.357192
 21
1374.414693
 31
0.0
  0
LINE
  5
34F
  8
0
 10
1724.482192
 20
1372.914693
 30
0.0
 11
1737.659847
 21
1372.914693
 31
0.0
  0
LINE
  5
350
  8
0
 10
1724.857192
 20
1372.414693
 30
0.0
 11
1736.892846
 21
1372.414693
 31
0.0
  0
CIRCLE
  5
351
  8
0
 10
1721.057192
 20
1389.414693
 30
0.0
 40
8.0
  0
CIRCLE
  5
352
  8
0
 10
1721.057192
 20
1389.414693
 30
0.0
 40
12.0
  0
LINE
  5
353
  8
0
 10
1724.857192
 20
1402.414693
 30
0.0
 11
1724.857192
 21
1406.414693
 31
0.0
  0
LINE
  5
354
  8
0
 10
1724.857192
 20
1406.414693
 30
0.0
 11
1723.357192
 21
1404.414693
 31
0.0
  0
LINE
  5
355
  8
0
 10
1724.857192
 20
1402.414693
 30
0.0
 11
1723.357192
 21
1404.414693
 31
0.0
  0
LINE
  5
356
  8
0
 10
1724.482192
 20
1405.914693
 30
0.0
 11
1737.659847
 21
1405.914693
 31
0.0
  0
LINE
  5
357
  8
0
 10
1724.857192
 20
1406.414693
 30
0.0
 11
1736.892846
 21
1406.414693
 31
0.0
  0
LINE
  5
358
  8
0
 10
1724.482192
 20
1402.914693
 30
0.0
 11
1738.357192
 21
1402.914693
 31
0.0
  0
LINE
  5
359
  8
0
 10
1724.857192
 20
1402.414693
 30
0.0
 11
1738.357192
 21
1402.414693
 31
0.0
  0
LINE
  5
35A
  8
0
 10
1724.857192
 20
1376.414693
 30
0.0
 11
1738.357192
 21
1376.414693
 31
0.0
  0
LINE
  5
35B
  8
0
 10
1724.482192
 20
1375.914693
 30
0.0
 11
1738.357192
 21
1375.914693
 31
0.0
  0
LINE
  5
35F
  8
0
 10
1738.357192
 20
1519.414693
 30
0.0
 11
1738.357192
 21
1369.414693
 31
0.0
  0
LINE
  5
360
  8
0
 10
1746.357192
 20
1519.414693
 30
0.0
 11
1746.357192
 21
1369.414693
 31
0.0
  0
LINE
  5
361
  8
0
 10
1738.357192
 20
1519.414693
 30
0.0
 11
1746.357192
 21
1519.414693
 31
0.0
  0
LINE
  5
362
  8
0
 10
1738.357192
 20
1369.414693
 30
0.0
 11
1746.357192
 21
1369.414693
 31
0.0
  0
DIMENSION
  5
37E
  8
MATEN
  2
*D7
 10
1754.300293
 20
1389.414693
 30
0.0
 11
1754.300293
 21
1444.414693
 31
0.0
 70
   128
 13
1721.057192
 23
1499.414693
 33
0.0
 14
1721.057192
 24
1389.414693
 34
0.0
 50
90.0
1001
ACAD
1000
DSTYLE
1002
{
1070
    78
1070
     8
1070
   140
1040
3.0
1070
    74
1070
     0
1070
   172
1070
     1
1070
    73
1070
     0
1070
    77
1070
     1
1070
   147
1040
0.625
1070
    42
1040
0.625
1070
    44
1040
1.25
1070
    43
1040
3.75
1070
   271
1070
     2
1070
   141
1040
2.5
1070
   275
1070
     1
1070
    41
1040
3.0
1070
   273
1070
     8
1070
   274
1070
     4
1070
   143
1040
0.0394
1070
   171
1070
     4
1002
}
  0
DIMENSION
  5
3C9
  8
MATEN
  2
*D8
 10
1688.555852
 20
1514.414693
 30
0.0
 11
1686.430852
 21
1516.914693
 31
0.0
 70
     0
 13
1738.357192
 23
1519.414693
 33
0.0
 14
1723.357192
 24
1514.414693
 34
0.0
 50
90.0
1001
ACAD
1000
DSTYLE
1002
{
1070
    78
1070
     8
1070
   140
1040
3.0
1070
    74
1070
     0
1070
   172
1070
     1
1070
    73
1070
     0
1070
    77
1070
     1
1070
   147
1040
0.625
1070
    42
1040
0.625
1070
    44
1040
1.25
1070
    43
1040
3.75
1070
   271
1070
     2
1070
   141
1040
2.5
1070
   275
1070
     1
1070
    41
1040
3.0
1070
   273
1070
     8
1070
   274
1070
     4
1070
   143
1040
0.0394
1070
   171
1070
     4
1002
}
  0
LINE
  5
3EC
  8
0
 10
1770.862188
 20
1519.414693
 30
0.0
 11
1890.862188
 21
1519.414693
 31
0.0
  0
LINE
  5
3ED
  8
0
 10
1770.862188
 20
1369.214693
 30
0.0
 11
1890.862188
 21
1369.214693
 31
0.0
  0
LINE
  5
3EE
  8
0
 10
1890.862188
 20
1519.414693
 30
0.0
 11
1890.862188
 21
1369.214693
 31
0.0
  0
LINE
  5
3EF
  8
0
 10
1770.862188
 20
1519.414693
 30
0.0
 11
1770.862188
 21
1369.214693
 31
0.0
  0
LINE
  5
41D
  8
0
 10
1788.362188
 20
1318.248541
 30
0.0
 11
1793.362188
 21
1323.248541
 31
0.0
  0
LINE
  5
41E
  8
0
 10
1783.362188
 20
1318.248541
 30
0.0
 11
1778.362188
 21
1323.248541
 31
0.0
  0
LINE
  5
422
  8
0
 10
1783.362188
 20
1318.248541
 30
0.0
 11
1788.362188
 21
1318.248541
 31
0.0
  0
LINE
  5
425
  8
0
 10
1788.362188
 20
1318.248541
 30
0.0
 11
1788.362188
 21
1315.248541
 31
0.0
  0
LINE
  5
426
  8
0
 10
1783.362188
 20
1318.248541
 30
0.0
 11
1783.362188
 21
1315.248541
 31
0.0
  0
ARC
  5
428
  8
0
 10
1785.862188
 20
1374.214693
 30
0.0
 40
7.5
 50
318.189685
 51
221.810315
  0
CIRCLE
  5
429
  8
0
 10
1785.862188
 20
1404.414693
 30
0.0
 40
7.5
  0
CIRCLE
  5
42A
  8
0
 10
1875.862188
 20
1404.414693
 30
0.0
 40
7.5
  0
ARC
  5
42B
  8
0
 10
1875.862188
 20
1374.214693
 30
0.0
 40
7.5
 50
318.189685
 51
221.810315
  0
CIRCLE
  5
42C
  8
0
 10
1875.862188
 20
1484.214693
 30
0.0
 40
7.5
  0
ARC
  5
42D
  8
0
 10
1875.862188
 20
1514.414693
 30
0.0
 40
7.5
 50
138.189685
 51
41.810315
  0
CIRCLE
  5
42E
  8
0
 10
1785.862188
 20
1484.214693
 30
0.0
 40
7.5
  0
ARC
  5
42F
  8
0
 10
1785.862188
 20
1514.414693
 30
0.0
 40
7.5
 50
138.189685
 51
41.810315
  0
LINE
  5
432
  8
0
 10
1770.862188
 20
1323.248541
 30
0.0
 11
1890.862188
 21
1323.248541
 31
0.0
  0
LINE
  5
433
  8
0
 10
1770.862188
 20
1315.248541
 30
0.0
 11
1890.862188
 21
1315.248541
 31
0.0
  0
LINE
  5
434
  8
0
 10
1890.862188
 20
1323.248541
 30
0.0
 11
1890.862188
 21
1315.248541
 31
0.0
  0
LINE
  5
435
  8
0
 10
1770.862188
 20
1323.248541
 30
0.0
 11
1770.862188
 21
1315.248541
 31
0.0
  0
LINE
  5
437
  8
0
 10
1873.362188
 20
1318.248541
 30
0.0
 11
1873.362188
 21
1315.248541
 31
0.0
  0
LINE
  5
438
  8
0
 10
1878.362188
 20
1318.248541
 30
0.0
 11
1878.362188
 21
1315.248541
 31
0.0
  0
LINE
  5
439
  8
0
 10
1873.362188
 20
1318.248541
 30
0.0
 11
1878.362188
 21
1318.248541
 31
0.0
  0
LINE
  5
43A
  8
0
 10
1873.362188
 20
1318.248541
 30
0.0
 11
1868.362188
 21
1323.248541
 31
0.0
  0
LINE
  5
43B
  8
0
 10
1878.362188
 20
1318.248541
 30
0.0
 11
1883.362188
 21
1323.248541
 31
0.0
  0
CIRCLE
  5
458
  8
0
 10
1785.862188
 20
1514.414693
 30
0.0
 40
2.0
  0
CIRCLE
  5
459
  8
0
 10
1875.862188
 20
1514.414693
 30
0.0
 40
2.0
  0
CIRCLE
  5
45A
  8
0
 10
1875.862188
 20
1484.214693
 30
0.0
 40
2.0
  0
CIRCLE
  5
45B
  8
0
 10
1875.862188
 20
1404.414693
 30
0.0
 40
2.0
  0
CIRCLE
  5
45C
  8
0
 10
1875.862188
 20
1374.214693
 30
0.0
 40
2.0
  0
CIRCLE
  5
45D
  8
0
 10
1785.862188
 20
1374.214693
 30
0.0
 40
2.0
  0
CIRCLE
  5
45E
  8
0
 10
1785.862188
 20
1404.414693
 30
0.0
 40
2.0
  0
CIRCLE
  5
45F
  8
0
 10
1785.862188
 20
1484.214693
 30
0.0
 40
2.0
  0
DIMENSION
  5
46C
  8
MATEN
  2
*D9
 10
1808.633619
 20
1486.214693
 30
0.0
 11
1806.508619
 21
1499.314693
 31
0.0
 70
     0
 13
1785.862188
 23
1512.414693
 33
0.0
 14
1785.862188
 24
1486.214693
 34
0.0
 50
90.0
1001
ACAD
1000
DSTYLE
1002
{
1070
    78
1070
     8
1070
   140
1040
3.0
1070
    74
1070
     0
1070
   172
1070
     1
1070
    73
1070
     0
1070
    77
1070
     1
1070
   147
1040
0.625
1070
    42
1040
0.625
1070
    44
1040
1.25
1070
    43
1040
3.75
1070
   271
1070
     2
1070
   141
1040
2.5
1070
   275
1070
     1
1070
    41
1040
3.0
1070
   273
1070
     8
1070
   274
1070
     4
1070
   143
1040
0.0394
1070
   171
1070
     4
1002
}
  0
CIRCLE
  5
46D
  8
MATEN
 10
1785.862188
 20
1514.414693
 30
0.0
 40
2.4
  0
CIRCLE
  5
46E
  8
MATEN
 10
1785.862188
 20
1484.214693
 30
0.0
 40
2.4
  0
DIMENSION
  5
47B
  8
MATEN
  2
*D10
 10
1775.981334
 20
1486.614693
 30
0.0
 11
1773.856334
 21
1499.314693
 31
0.0
 70
     0
 13
1785.862188
 23
1512.014693
 33
0.0
 14
1785.862188
 24
1486.614693
 34
0.0
 50
90.0
1001
ACAD
1000
DSTYLE
1002
{
1070
    78
1070
     8
1070
   140
1040
3.0
1070
    74
1070
     0
1070
   172
1070
     1
1070
    73
1070
     0
1070
    77
1070
     1
1070
   147
1040
0.625
1070
    42
1040
0.625
1070
    44
1040
1.25
1070
    43
1040
3.75
1070
   271
1070
     2
1070
   141
1040
2.5
1070
   275
1070
     1
1070
    41
1040
3.0
1070
   273
1070
     8
1070
   274
1070
     4
1070
   143
1040
0.0394
1070
   171
1070
     4
1002
}
  0
DIMENSION
  5
488
  8
MATEN
  2
*D11
 10
1821.659646
 20
1481.814693
 30
0.0
 11
1819.534646
 21
1499.314693
 31
0.0
 70
     0
 13
1785.862188
 23
1516.814693
 33
0.0
 14
1785.862188
 24
1481.814693
 34
0.0
 50
90.0
1001
ACAD
1000
DSTYLE
1002
{
1070
    78
1070
     8
1070
   140
1040
3.0
1070
    74
1070
     0
1070
   172
1070
     1
1070
    73
1070
     0
1070
    77
1070
     1
1070
   147
1040
0.625
1070
    42
1040
0.625
1070
    44
1040
1.25
1070
    43
1040
3.75
1070
   271
1070
     2
1070
   141
1040
2.5
1070
   275
1070
     1
1070
    41
1040
3.0
1070
   273
1070
     8
1070
   274
1070
     4
1070
   143
1040
0.0394
1070
   171
1070
     4
1002
}
  0
DIMENSION
  5
4B5
  8
MATEN
  2
*D12
 10
1784.152877
 20
1485.899405
 30
0.0
 11
1801.158478
 21
1469.138536
 31
0.0
 70
   131
 15
1787.5715
 25
1482.529981
 35
0.0
 40
0.0
1001
ACAD
1000
DSTYLE
1002
{
1070
    78
1070
     8
1070
   140
1040
3.0
1070
    74
1070
     0
1070
   172
1070
     1
1070
    73
1070
     0
1070
    77
1070
     1
1070
   147
1040
0.625
1070
    42
1040
0.625
1070
    44
1040
1.25
1070
    43
1040
3.75
1070
   271
1070
     2
1070
   141
1040
2.5
1070
   275
1070
     1
1070
    41
1040
3.0
1070
   273
1070
     8
1070
   274
1070
     4
1070
   143
1040
0.0394
1070
   171
1070
     4
1002
}
  0
DIMENSION
  5
4E6
  8
MATEN
  2
*D13
 10
1904.212109
 20
1374.214693
 30
0.0
 11
1902.087109
 21
1389.314693
 31
0.0
 70
     0
 13
1875.862188
 23
1404.414693
 33
0.0
 14
1875.862188
 24
1374.214693
 34
0.0
 50
90.0
1001
ACAD
1000
DSTYLE
1002
{
1070
    78
1070
     8
1070
   140
1040
3.0
1070
    74
1070
     0
1070
   172
1070
     1
1070
    73
1070
     0
1070
    77
1070
     1
1070
   147
1040
0.625
1070
    42
1040
0.625
1070
    44
1040
1.25
1070
    43
1040
3.75
1070
   271
1070
     2
1070
   141
1040
2.5
1070
   275
1070
     1
1070
    41
1040
3.0
1070
   273
1070
     8
1070
   274
1070
     4
1070
   143
1040
0.0394
1070
   171
1070
     4
1002
}
  0
DIMENSION
  5
4F4
  8
MATEN
  2
*D14
 10
1904.212109
 20
1369.214693
 30
0.0
 11
1902.087109
 21
1371.714693
 31
0.0
 70
     0
 13
1875.862188
 23
1374.214693
 33
0.0
 14
1890.862188
 24
1369.214693
 34
0.0
 50
90.0
1001
ACAD
1000
DSTYLE
1002
{
1070
    78
1070
     8
1070
   140
1040
3.0
1070
    74
1070
     0
1070
   172
1070
     1
1070
    73
1070
     0
1070
    77
1070
     1
1070
   147
1040
0.625
1070
    42
1040
0.625
1070
    44
1040
1.25
1070
    43
1040
3.75
1070
   271
1070
     2
1070
   141
1040
2.5
1070
   275
1070
     1
1070
    41
1040
3.0
1070
   273
1070
     8
1070
   274
1070
     4
1070
   143
1040
0.0394
1070
   171
1070
     4
1002
}
  0
DIMENSION
  5
501
  8
MATEN
  2
*D15
 10
1903.365169
 20
1484.214693
 30
0.0
 11
1901.240169
 21
1444.314693
 31
0.0
 70
     0
 13
1875.862188
 23
1404.414693
 33
0.0
 14
1875.862188
 24
1484.214693
 34
0.0
 50
90.0
1001
ACAD
1000
DSTYLE
1002
{
1070
    78
1070
     8
1070
   140
1040
3.0
1070
    74
1070
     0
1070
   172
1070
     1
1070
    73
1070
     0
1070
    77
1070
     1
1070
   147
1040
0.625
1070
    42
1040
0.625
1070
    44
1040
1.25
1070
    43
1040
3.75
1070
   271
1070
     2
1070
   141
1040
2.5
1070
   275
1070
     1
1070
    41
1040
3.0
1070
   273
1070
     8
1070
   274
1070
     4
1070
   143
1040
0.0394
1070
   171
1070
     4
1002
}
  0
DIMENSION
  5
50E
  8
MATEN
  2
*D16
 10
1903.277591
 20
1484.214693
 30
0.0
 11
1901.152591
 21
1499.314693
 31
0.0
 70
     0
 13
1875.862188
 23
1514.414693
 33
0.0
 14
1875.862188
 24
1484.214693
 34
0.0
 50
90.0
1001
ACAD
1000
DSTYLE
1002
{
1070
    78
1070
     8
1070
   140
1040
3.0
1070
    74
1070
     0
1070
   172
1070
     1
1070
    73
1070
     0
1070
    77
1070
     1
1070
   147
1040
0.625
1070
    42
1040
0.625
1070
    44
1040
1.25
1070
    43
1040
3.75
1070
   271
1070
     2
1070
   141
1040
2.5
1070
   275
1070
     1
1070
    41
1040
3.0
1070
   273
1070
     8
1070
   274
1070
     4
1070
   143
1040
0.0394
1070
   171
1070
     4
1002
}
  0
DIMENSION
  5
51D
  8
MATEN
  2
*D17
 10
1903.122174
 20
1519.414693
 30
0.0
 11
1900.997174
 21
1516.914693
 31
0.0
 70
     0
 13
1875.862188
 23
1514.414693
 33
0.0
 14
1890.862188
 24
1519.414693
 34
0.0
 50
90.0
1001
ACAD
1000
DSTYLE
1002
{
1070
    78
1070
     8
1070
   140
1040
3.0
1070
    74
1070
     0
1070
   172
1070
     1
1070
    73
1070
     0
1070
    77
1070
     1
1070
   147
1040
0.625
1070
    42
1040
0.625
1070
    44
1040
1.25
1070
    43
1040
3.75
1070
   271
1070
     2
1070
   141
1040
2.5
1070
   275
1070
     1
1070
    41
1040
3.0
1070
   273
1070
     8
1070
   274
1070
     4
1070
   143
1040
0.0394
1070
   171
1070
     4
1002
}
  0
DIMENSION
  5
52A
  8
MATEN
  2
*D18
 10
1764.421517
 20
1369.214693
 30
0.0
 11
1762.296517
 21
1444.314693
 31
0.0
 70
     0
 13
1770.862188
 23
1519.414693
 33
0.0
 14
1770.862188
 24
1369.214693
 34
0.0
 50
90.0
1001
ACAD
1000
DSTYLE
1002
{
1070
    78
1070
     8
1070
   140
1040
3.0
1070
    74
1070
     0
1070
   172
1070
     1
1070
    73
1070
     0
1070
    77
1070
     1
1070
   147
1040
0.625
1070
    42
1040
0.625
1070
    44
1040
1.25
1070
    43
1040
3.75
1070
   271
1070
     2
1070
   141
1040
2.5
1070
   275
1070
     1
1070
    41
1040
3.0
1070
   273
1070
     8
1070
   274
1070
     4
1070
   143
1040
0.0394
1070
   171
1070
     4
1002
}
  0
LINE
  5
52B
  8
MATEN
 10
1785.862188
 20
1396.914693
 30
0.0
 11
1785.862188
 21
1381.714693
 31
0.0
  0
LINE
  5
52C
  8
MATEN
 10
1785.862188
 20
1506.914693
 30
0.0
 11
1785.862188
 21
1491.714693
 31
0.0
  0
DIMENSION
  5
539
  8
MATEN
  2
*D19
 10
1866.432803
 20
1389.314693
 30
0.0
 11
1866.432803
 21
1444.314693
 31
0.0
 70
   128
 13
1785.862188
 23
1499.314693
 33
0.0
 14
1785.862188
 24
1389.314693
 34
0.0
 50
90.0
1001
ACAD
1000
DSTYLE
1002
{
1070
    78
1070
     8
1070
   140
1040
3.0
1070
    74
1070
     0
1070
   172
1070
     1
1070
    73
1070
     0
1070
    77
1070
     1
1070
   147
1040
0.625
1070
    42
1040
0.625
1070
    44
1040
1.25
1070
    43
1040
3.75
1070
   271
1070
     2
1070
   141
1040
2.5
1070
   275
1070
     1
1070
    41
1040
3.0
1070
   273
1070
     8
1070
   274
1070
     4
1070
   143
1040
0.0394
1070
   171
1070
     4
1002
}
  0
DIMENSION
  5
5FB
  8
MATEN
  2
*D20
 10
1890.862188
 20
1536.929413
 30
0.0
 11
1883.362188
 21
1539.054413
 31
0.0
 70
     0
 13
1875.862188
 23
1514.414693
 33
0.0
 14
1890.862188
 24
1519.414693
 34
0.0
1001
ACAD
1000
DSTYLE
1002
{
1070
    78
1070
     8
1070
   140
1040
3.0
1070
    74
1070
     0
1070
   172
1070
     1
1070
    73
1070
     0
1070
    77
1070
     1
1070
   147
1040
0.625
1070
    42
1040
0.625
1070
    44
1040
1.25
1070
    43
1040
3.75
1070
   271
1070
     2
1070
   141
1040
2.5
1070
   275
1070
     1
1070
    41
1040
3.0
1070
   273
1070
     8
1070
   274
1070
     4
1070
   143
1040
0.0394
1070
   171
1070
     4
1002
}
  0
DIMENSION
  5
608
  8
MATEN
  2
*D21
 10
1875.862188
 20
1536.426861
 30
0.0
 11
1830.862188
 21
1538.551861
 31
0.0
 70
     0
 13
1785.862188
 23
1514.414693
 33
0.0
 14
1875.862188
 24
1514.414693
 34
0.0
1001
ACAD
1000
DSTYLE
1002
{
1070
    78
1070
     8
1070
   140
1040
3.0
1070
    74
1070
     0
1070
   172
1070
     1
1070
    73
1070
     0
1070
    77
1070
     1
1070
   147
1040
0.625
1070
    42
1040
0.625
1070
    44
1040
1.25
1070
    43
1040
3.75
1070
   271
1070
     2
1070
   141
1040
2.5
1070
   275
1070
     1
1070
    41
1040
3.0
1070
   273
1070
     8
1070
   274
1070
     4
1070
   143
1040
0.0394
1070
   171
1070
     4
1002
}
  0
TEXT
  8
0
  40
5
  5
D67
  72
0
  71
0
 10
1541.08
 20
1407.87
 30
0.000000
  1
Trapezium moer ophanging 
  0
TEXT
  8
0
  40
5
  5
D68
  72
0
  71
0
 10
1541.08
 20
1401.37
 30
0.000000
  1
centerend t.o.v. de Y as
  0
TEXT
  8
0
  40
5
  5
D69
  72
0
  71
0
 10
1541.08
 20
1394.87
 30
0.000000
  1
J.Stinissen 13-12-2000 
  0
CIRCLE
  5
C1E
  8
0
 10
1721.057192
 20
1444.414693
 30
0.0
 40
8.0
  0
ARC
  5
C1F
  8
0
 10
1721.057192
 20
1444.414693
 30
0.0
 40
5.75
 50
90.0
 51
0.0
  0
LINE
  5
C20
  8
0
 10
1711.057192
 20
1432.768986
 30
0.0
 11
1731.057192
 21
1432.768986
 31
0.0
  0
LINE
  5
C21
  8
0
 10
1711.057192
 20
1456.060401
 30
0.0
 11
1731.057192
 21
1456.060401
 31
0.0
  0
ARC
  5
C22
  8
0
 10
1721.057192
 20
1444.414693
 30
0.0
 40
15.35
 50
310.652208
 51
49.347792
  0
ARC
  5
C23
  8
0
 10
1721.057192
 20
1444.414693
 30
0.0
 40
15.35
 50
130.652208
 51
229.347792
  0
LINE
  5
C35
  8
0
  6
ACAD_ISO02W100
 10
1815.662188
 20
1435.964693
 30
0.0
 11
1846.062188
 21
1435.964693
 31
0.0
  0
LINE
  5
C36
  8
0
  6
ACAD_ISO02W100
 10
1815.662188
 20
1451.964693
 30
0.0
 11
1846.062188
 21
1451.964693
 31
0.0
  0
LINE
  5
C37
  8
0
  6
ACAD_ISO02W100
 10
1815.662188
 20
1449.714693
 30
0.0
 11
1846.062188
 21
1449.714693
 31
0.0
  0
LINE
  5
C38
  8
0
  6
ACAD_ISO02W100
 10
1815.662188
 20
1438.214693
 30
0.0
 11
1846.062188
 21
1438.214693
 31
0.0
  0
LINE
  5
C7A
  8
0
 10
1815.662188
 20
1456.060401
 30
0.0
 11
1815.662188
 21
1432.768986
 31
0.0
  0
LINE
  5
C7E
  8
0
 10
1846.062188
 20
1456.060401
 30
0.0
 11
1846.062188
 21
1432.768986
 31
0.0
  0
LINE
  5
C8A
  8
0
 10
1815.662188
 20
1456.060401
 30
0.0
 11
1846.062188
 21
1456.060401
 31
0.0
  0
LINE
  5
C8B
  8
0
 10
1815.662188
 20
1432.768986
 30
0.0
 11
1846.062188
 21
1432.768986
 31
0.0
  0
LINE
  5
C97
  8
0
 10
1846.062188
 20
1471.060401
 30
0.0
 11
1846.062188
 21
1456.060401
 31
0.0
  0
LINE
  5
C98
  8
0
 10
1846.062188
 20
1417.768986
 30
0.0
 11
1846.062188
 21
1432.768986
 31
0.0
  0
LINE
  5
C99
  8
0
 10
1845.062188
 20
1471.060401
 30
0.0
 11
1845.062188
 21
1456.060401
 31
0.0
  0
LINE
  5
C9A
  8
0
 10
1845.062188
 20
1417.768986
 30
0.0
 11
1845.062188
 21
1432.768986
 31
0.0
  0
LINE
  5
C9C
  8
0
 10
1846.062188
 20
1417.768986
 30
0.0
 11
1854.062188
 21
1417.768986
 31
0.0
  0
LINE
  5
C9D
  8
0
 10
1846.062188
 20
1471.060401
 30
0.0
 11
1854.062188
 21
1471.060401
 31
0.0
  0
LINE
  5
C9E
  8
0
 10
1854.062188
 20
1471.060401
 30
0.0
 11
1854.062188
 21
1417.768986
 31
0.0
  0
CIRCLE
  5
CA3
  8
0
 10
1820.862188
 20
1425.268986
 30
0.0
 40
3.0
  0
CIRCLE
  5
CA4
  8
0
 10
1820.862188
 20
1463.560401
 30
0.0
 40
3.0
  0
LINE
  5
CB4
  8
0
 10
1807.662188
 20
1471.060401
 30
0.0
 11
1807.662188
 21
1417.768986
 31
0.0
  0
LINE
  5
CB5
  8
0
 10
1807.662188
 20
1417.768986
 30
0.0
 11
1845.062188
 21
1417.768986
 31
0.0
  0
LINE
  5
CB6
  8
0
 10
1807.662188
 20
1471.060401
 30
0.0
 11
1845.062188
 21
1471.060401
 31
0.0
  0
LINE
  5
CBA
  8
0
 10
1705.707192
 20
1417.768986
 30
0.0
 11
1705.707192
 21
1471.060401
 31
0.0
  0
LINE
  5
CBB
  8
0
 10
1705.707192
 20
1471.060401
 30
0.0
 11
1738.357192
 21
1471.060401
 31
0.0
  0
LINE
  5
CBC
  8
0
 10
1705.707192
 20
1417.768986
 30
0.0
 11
1738.357192
 21
1417.768986
 31
0.0
  0
LINE
  5
CBF
  8
0
 10
1705.707192
 20
1456.060401
 30
0.0
 11
1738.357192
 21
1456.060401
 31
0.0
  0
LINE
  5
CC0
  8
0
 10
1705.707192
 20
1432.768986
 30
0.0
 11
1738.357192
 21
1432.768986
 31
0.0
  0
CIRCLE
  5
CC3
  8
0
 10
1722.032192
 20
1463.560401
 30
0.0
 40
3.0
  0
CIRCLE
  5
CC4
  8
0
 10
1722.032192
 20
1425.268986
 30
0.0
 40
3.0
  0
DIMENSION
  5
CD5
  8
MATEN
  2
*D22
 10
1738.357192
 20
1474.685401
 30
0.0
 11
1690.743966
 21
1474.685401
 31
0.0
 70
   128
 13
1705.707192
 23
1471.060401
 33
0.0
 14
1738.357192
 24
1471.060401
 34
0.0
1001
ACAD
1000
DSTYLE
1002
{
1070
    78
1070
     8
1070
   140
1040
3.0
1070
    74
1070
     0
1070
   172
1070
     1
1070
    73
1070
     0
1070
    77
1070
     1
1070
   147
1040
0.625
1070
    42
1040
0.625
1070
    44
1040
1.25
1070
    43
1040
3.75
1070
   271
1070
     2
1070
   141
1040
2.5
1070
   275
1070
     1
1070
    41
1040
3.0
1070
   273
1070
     8
1070
   274
1070
     4
1070
   143
1040
0.0394
1070
   171
1070
     4
1002
}
  0
DIMENSION
  5
D1D
  8
MATEN
  2
*D23
 10
1860.306859
 20
1417.768986
 30
0.0
 11
1858.181859
 21
1444.414693
 31
0.0
 70
     0
 13
1854.062188
 23
1471.060401
 33
0.0
 14
1854.062188
 24
1417.768986
 34
0.0
 50
90.0
1001
ACAD
1000
DSTYLE
1002
{
1070
    78
1070
     8
1070
   140
1040
3.0
1070
    74
1070
     0
1070
   172
1070
     1
1070
    73
1070
     0
1070
    77
1070
     1
1070
   147
1040
0.625
1070
    42
1040
0.625
1070
    44
1040
1.25
1070
    43
1040
3.75
1070
   271
1070
     2
1070
   141
1040
2.5
1070
   275
1070
     1
1070
    41
1040
3.0
1070
   273
1070
     8
1070
   274
1070
     4
1070
   143
1040
0.0394
1070
   171
1070
     4
1002
}
  0
DIMENSION
  5
D2A
  8
MATEN
  2
*D24
 10
1845.062188
 20
1476.109969
 30
0.0
 11
1826.362188
 21
1478.234969
 31
0.0
 70
     0
 13
1807.662188
 23
1471.060401
 33
0.0
 14
1845.062188
 24
1471.060401
 34
0.0
1001
ACAD
1000
DSTYLE
1002
{
1070
    78
1070
     8
1070
   140
1040
3.0
1070
    74
1070
     0
1070
   172
1070
     1
1070
    73
1070
     0
1070
    77
1070
     1
1070
   147
1040
0.625
1070
    42
1040
0.625
1070
    44
1040
1.25
1070
    43
1040
3.75
1070
   271
1070
     2
1070
   141
1040
2.5
1070
   275
1070
     1
1070
    41
1040
3.0
1070
   273
1070
     8
1070
   274
1070
     4
1070
   143
1040
0.0394
1070
   171
1070
     4
1002
}
  0
LINE
  5
D33
  8
0
 10
1830.062188
 20
1425.268986
 30
0.0
 11
1832.062188
 21
1422.268986
 31
0.0
  0
LINE
  5
D34
  8
0
 10
1830.062188
 20
1425.268986
 30
0.0
 11
1832.062188
 21
1428.268986
 31
0.0
  0
LINE
  5
D35
  8
0
 10
1830.062188
 20
1463.560401
 30
0.0
 11
1832.062188
 21
1460.560401
 31
0.0
  0
LINE
  5
D36
  8
0
 10
1830.062188
 20
1463.560401
 30
0.0
 11
1832.062188
 21
1466.560401
 31
0.0
  0
LINE
  5
D37
  8
0
 10
1832.062188
 20
1466.560401
 30
0.0
 11
1845.062188
 21
1466.560401
 31
0.0
  0
LINE
  5
D38
  8
0
 10
1832.062188
 20
1460.560401
 30
0.0
 11
1845.062188
 21
1460.560401
 31
0.0
  0
LINE
  5
D39
  8
0
 10
1832.062188
 20
1428.268986
 30
0.0
 11
1845.062188
 21
1428.268986
 31
0.0
  0
LINE
  5
D3A
  8
0
 10
1832.062188
 20
1422.268986
 30
0.0
 11
1845.062188
 21
1422.268986
 31
0.0
  0
LINE
  5
D3B
  8
0
 10
1846.062188
 20
1428.268986
 30
0.0
 11
1854.062188
 21
1428.268986
 31
0.0
  0
LINE
  5
D3C
  8
0
 10
1846.062188
 20
1422.268986
 30
0.0
 11
1854.062188
 21
1422.268986
 31
0.0
  0
LINE
  5
D3D
  8
0
 10
1846.062188
 20
1466.560401
 30
0.0
 11
1854.062188
 21
1466.560401
 31
0.0
  0
LINE
  5
D3E
  8
0
 10
1846.062188
 20
1460.560401
 30
0.0
 11
1854.062188
 21
1460.560401
 31
0.0
  0
LINE
  5
D3F
  8
0
 10
1832.062188
 20
1461.060401
 30
0.0
 11
1845.062188
 21
1461.060401
 31
0.0
  0
LINE
  5
D40
  8
0
 10
1832.062188
 20
1466.060401
 30
0.0
 11
1845.062188
 21
1466.060401
 31
0.0
  0
LINE
  5
D41
  8
0
 10
1832.062188
 20
1427.768986
 30
0.0
 11
1845.062188
 21
1427.768986
 31
0.0
  0
LINE
  5
D42
  8
0
 10
1832.062188
 20
1422.768986
 30
0.0
 11
1845.062188
 21
1422.768986
 31
0.0
  0
LINE
  5
D43
  8
0
 10
1832.062188
 20
1422.268986
 30
0.0
 11
1832.062188
 21
1428.268986
 31
0.0
  0
LINE
  5
D44
  8
0
 10
1832.062188
 20
1460.560401
 30
0.0
 11
1832.062188
 21
1466.560401
 31
0.0
  0
ENDSEC
  0
EOF
