  0
SECTION
  2
HEADER
  9
$ACADVER
  1
AC1009
  9
$INSBASE
 10
0.0
 20
0.0
 30
0.0
  9
$EXTMIN
 10
2265.917608
 20
1126.07622
 30
0.0
  9
$EXTMAX
 10
2390.955364
 20
1245.452071
 30
0.0
  9
$LIMMIN
 10
0.0
 20
0.0
  9
$LIMMAX
 10
4200.0
 20
2970.0
  9
$ORTHOMODE
 70
     0
  9
$REGENMODE
 70
     1
  9
$FILLMODE
 70
     1
  9
$QTEXTMODE
 70
     0
  9
$MIRRTEXT
 70
     1
  9
$DRAGMODE
 70
     2
  9
$LTSCALE
 40
0.2
  9
$OSMODE
 70
   191
  9
$ATTMODE
 70
     1
  9
$TEXTSIZE
 40
2.5
  9
$TRACEWID
 40
1.0
  9
$TEXTSTYLE
  7
STANDARD
  9
$CLAYER
  8
0
  9
$CELTYPE
  6
BYLAYER
  9
$CECOLOR
 62
   256
  9
$DIMSCALE
 40
1.0
  9
$DIMASZ
 40
5.0
  9
$DIMEXO
 40
0.625
  9
$DIMDLI
 40
3.75
  9
$DIMRND
 40
0.0
  9
$DIMDLE
 40
0.0
  9
$DIMEXE
 40
1.25
  9
$DIMTP
 40
0.0
  9
$DIMTM
 40
0.0
  9
$DIMTXT
 40
4.0
  9
$DIMCEN
 40
2.5
  9
$DIMTSZ
 40
0.0
  9
$DIMTOL
 70
     0
  9
$DIMLIM
 70
     0
  9
$DIMTIH
 70
     0
  9
$DIMTOH
 70
     0
  9
$DIMSE1
 70
     0
  9
$DIMSE2
 70
     0
  9
$DIMTAD
 70
     1
  9
$DIMZIN
 70
     8
  9
$DIMBLK
  1

  9
$DIMASO
 70
     1
  9
$DIMSHO
 70
     1
  9
$DIMPOST
  1

  9
$DIMAPOST
  1

  9
$DIMALT
 70
     0
  9
$DIMALTD
 70
     4
  9
$DIMALTF
 40
0.0394
  9
$DIMLFAC
 40
1.0
  9
$DIMTOFL
 70
     1
  9
$DIMTVP
 40
0.0
  9
$DIMTIX
 70
     0
  9
$DIMSOXD
 70
     0
  9
$DIMSAH
 70
     0
  9
$DIMBLK1
  1

  9
$DIMBLK2
  1

  9
$DIMSTYLE
  2
STANDARD
  9
$DIMCLRD
 70
     0
  9
$DIMCLRE
 70
     0
  9
$DIMCLRT
 70
     0
  9
$DIMTFAC
 40
1.0
  9
$DIMGAP
 40
2.625
  9
$LUNITS
 70
     2
  9
$LUPREC
 70
     4
  9
$SKETCHINC
 40
1.0
  9
$FILLETRAD
 40
0.1
  9
$AUNITS
 70
     0
  9
$AUPREC
 70
     0
  9
$MENU
  1
acad
  9
$ELEVATION
 40
0.0
  9
$PELEVATION
 40
0.0
  9
$THICKNESS
 40
0.0
  9
$LIMCHECK
 70
     0
  9
$BLIPMODE
 70
     0
  9
$CHAMFERA
 40
0.6
  9
$CHAMFERB
 40
0.6
  9
$SKPOLY
 70
     0
  9
$TDCREATE
 40
2451801.38001
  9
$TDUPDATE
 40
2451883.646318
  9
$TDINDWG
 40
3.285656
  9
$TDUSRTIMER
 40
3.285656
  9
$USRTIMER
 70
     1
  9
$ANGBASE
 50
0.0
  9
$ANGDIR
 70
     0
  9
$PDMODE
 70
     0
  9
$PDSIZE
 40
0.0
  9
$PLINEWID
 40
0.0
  9
$COORDS
 70
     1
  9
$SPLFRAME
 70
     0
  9
$SPLINETYPE
 70
     6
  9
$SPLINESEGS
 70
     8
  9
$ATTDIA
 70
     0
  9
$ATTREQ
 70
     1
  9
$HANDLING
 70
     1
  9
$HANDSEED
  5
129
  9
$SURFTAB1
 70
     6
  9
$SURFTAB2
 70
     6
  9
$SURFTYPE
 70
     6
  9
$SURFU
 70
     6
  9
$SURFV
 70
     6
  9
$UCSNAME
  2

  9
$UCSORG
 10
0.0
 20
0.0
 30
0.0
  9
$UCSXDIR
 10
1.0
 20
0.0
 30
0.0
  9
$UCSYDIR
 10
0.0
 20
1.0
 30
0.0
  9
$PUCSNAME
  2

  9
$PUCSORG
 10
0.0
 20
0.0
 30
0.0
  9
$PUCSXDIR
 10
1.0
 20
0.0
 30
0.0
  9
$PUCSYDIR
 10
0.0
 20
1.0
 30
0.0
  9
$USERI1
 70
     0
  9
$USERI2
 70
     0
  9
$USERI3
 70
     0
  9
$USERI4
 70
     0
  9
$USERI5
 70
     0
  9
$USERR1
 40
0.0
  9
$USERR2
 40
0.0
  9
$USERR3
 40
0.0
  9
$USERR4
 40
0.0
  9
$USERR5
 40
0.0
  9
$WORLDVIEW
 70
     1
  9
$SHADEDGE
 70
     3
  9
$SHADEDIF
 70
    70
  9
$TILEMODE
 70
     1
  9
$MAXACTVP
 70
    48
  9
$PLIMCHECK
 70
     0
  9
$PEXTMIN
 10
1.000000E+020
 20
1.000000E+020
 30
1.000000E+020
  9
$PEXTMAX
 10
-1.000000E+020
 20
-1.000000E+020
 30
-1.000000E+020
  9
$PLIMMIN
 10
0.0
 20
0.0
  9
$PLIMMAX
 10
420.0
 20
297.0
  9
$UNITMODE
 70
     0
  9
$VISRETAIN
 70
     1
  9
$PLINEGEN
 70
     0
  9
$PSLTSCALE
 70
     1
  0
ENDSEC
  0
SECTION
  2
TABLES
  0
TABLE
  2
VPORT
 70
     2
  0
VPORT
  2
*ACTIVE
 70
     0
 10
0.0
 20
0.0
 11
1.0
 21
1.0
 12
2337.206987
 22
1195.347363
 13
0.0
 23
0.0
 14
10.0
 24
10.0
 15
25.0
 25
25.0
 16
0.0
 26
0.0
 36
1.0
 17
0.0
 27
0.0
 37
0.0
 40
189.166203
 41
1.700368
 42
50.0
 43
0.0
 44
0.0
 50
0.0
 51
0.0
 71
     0
 72
   100
 73
     1
 74
     1
 75
     0
 76
     0
 77
     0
 78
     0
  0
ENDTAB
  0
TABLE
  2
LTYPE
 70
     3
  0
LTYPE
  2
CONTINUOUS
 70
     0
  3
Solid line
 72
    65
 73
     0
 40
0.0
  0
LTYPE
  2
DASHED
 70
     0
  3
Dashed __ __ __ __ __ __ __ __ __ __ __ __ __ _
 72
    65
 73
     2
 40
19.05
 49
12.7
 49
-6.35
  0
LTYPE
  2
CENTER
 70
     0
  3
Center ____ _ ____ _ ____ _ ____ _ ____ _ ____
 72
    65
 73
     4
 40
2.0
 49
1.25
 49
-0.25
 49
0.25
 49
-0.25
  0
ENDTAB
  0
TABLE
  2
LAYER
 70
     3
  0
LAYER
  2
0
 70
     0
 62
     7
  6
CONTINUOUS
  0
LAYER
  2
MATEN
 70
     0
 62
     1
  6
CONTINUOUS
  0
LAYER
  2
DEFPOINTS
 70
     0
 62
     7
  6
CONTINUOUS
  0
ENDTAB
  0
TABLE
  2
STYLE
 70
     1
  0
STYLE
  2
STANDARD
 70
     0
 40
0.0
 41
1.0
 50
0.0
 71
     0
 42
2.5
  3
txt
  4

  0
ENDTAB
  0
TABLE
  2
VIEW
 70
     0
  0
ENDTAB
  0
TABLE
  2
UCS
 70
     0
  0
ENDTAB
  0
TABLE
  2
APPID
 70
     1
  0
APPID
  2
ACAD
 70
     0
  0
ENDTAB
  0
TABLE
  2
DIMSTYLE
 70
     1
  0
DIMSTYLE
  2
STANDARD
 70
     0
  3

  4

  5

  6

  7

 40
1.0
 41
0.18
 42
0.0625
 43
0.38
 44
0.18
 45
0.0
 46
0.0
 47
0.0
 48
0.0
140
0.18
141
0.09
142
0.0
143
25.4
144
1.0
145
0.0
146
1.0
147
0.09
 71
     0
 72
     0
 73
     1
 74
     1
 75
     0
 76
     0
 77
     0
 78
     0
170
     0
171
     2
172
     0
173
     0
174
     0
175
     0
176
     0
177
     0
178
     0
  0
ENDTAB
  0
ENDSEC
  0
SECTION
  2
BLOCKS
  0
BLOCK
  8
0
  2
$MODEL_SPACE
 70
     0
 10
0.0
 20
0.0
 30
0.0
  3
$MODEL_SPACE
  1

  0
ENDBLK
  5
6
  8
0
  0
BLOCK
 67
     1
  8
0
  2
$PAPER_SPACE
 70
     0
 10
0.0
 20
0.0
 30
0.0
  3
$PAPER_SPACE
  1

  0
ENDBLK
  5
9
 67
     1
  8
0
  0
BLOCK
  8
0
  2
*D0
 70
     1
 10
0.0
 20
0.0
 30
0.0
  3
*D0
  1

  0
LINE
  5
CB
  8
0
  6
BYBLOCK
 62
     0
 10
2345.071488
 20
1211.827071
 30
0.0
 11
2345.071488
 21
1203.427233
 31
0.0
  0
LINE
  5
CC
  8
0
  6
BYBLOCK
 62
     0
 10
2351.071488
 20
1211.827071
 30
0.0
 11
2351.071488
 21
1203.427233
 31
0.0
  0
LINE
  5
CD
  8
0
  6
BYBLOCK
 62
     0
 10
2340.071488
 20
1204.677233
 30
0.0
 11
2335.071488
 21
1204.677233
 31
0.0
  0
LINE
  5
CE
  8
0
  6
BYBLOCK
 62
     0
 10
2356.071488
 20
1204.677233
 30
0.0
 11
2372.988155
 21
1204.677233
 31
0.0
  0
LINE
  5
CF
  8
0
  6
BYBLOCK
 62
     0
 10
2345.071488
 20
1204.677233
 30
0.0
 11
2351.071488
 21
1204.677233
 31
0.0
  0
SOLID
  5
D0
  8
0
  6
BYBLOCK
 62
     0
 10
2340.071488
 20
1205.510566
 30
0.0
 11
2340.071488
 21
1203.843899
 31
0.0
 12
2345.071488
 22
1204.677233
 32
0.0
 13
2345.071488
 23
1204.677233
 33
0.0
  0
SOLID
  5
D1
  8
0
  6
BYBLOCK
 62
     0
 10
2356.071488
 20
1205.510566
 30
0.0
 11
2356.071488
 21
1203.843899
 31
0.0
 12
2351.071488
 22
1204.677233
 32
0.0
 13
2351.071488
 23
1204.677233
 33
0.0
  0
TEXT
  8
0
  40
4
  5
118
  62
0
  72
0
  71
0
 10
2359.03
 20
1202.22
 30
0.000000
  1
M6
  0
POINT
  5
D3
  8
DEFPOINTS
  6
BYBLOCK
 62
     0
 10
2345.071488
 20
1212.452071
 30
0.0
  0
POINT
  5
D4
  8
DEFPOINTS
  6
BYBLOCK
 62
     0
 10
2351.071488
 20
1212.452071
 30
0.0
  0
POINT
  5
D5
  8
DEFPOINTS
  6
BYBLOCK
 62
     0
 10
2351.071488
 20
1204.677233
 30
0.0
  0
ENDBLK
  5
D6
  8
0
  0
BLOCK
  8
0
  2
*D1
 70
     1
 10
0.0
 20
0.0
 30
0.0
  3
*D1
  1

  0
LINE
  5
E5
  8
0
  6
BYBLOCK
 62
     0
 10
2305.821488
 20
1212.127071
 30
0.0
 11
2305.821488
 21
1192.317355
 31
0.0
  0
LINE
  5
E6
  8
0
  6
BYBLOCK
 62
     0
 10
2348.071488
 20
1212.127071
 30
0.0
 11
2348.071488
 21
1192.317355
 31
0.0
  0
LINE
  5
E7
  8
0
  6
BYBLOCK
 62
     0
 10
2310.821488
 20
1193.567355
 30
0.0
 11
2343.071488
 21
1193.567355
 31
0.0
  0
SOLID
  5
E8
  8
0
  6
BYBLOCK
 62
     0
 10
2310.821488
 20
1194.400689
 30
0.0
 11
2310.821488
 21
1192.734022
 31
0.0
 12
2305.821488
 22
1193.567355
 32
0.0
 13
2305.821488
 23
1193.567355
 33
0.0
  0
SOLID
  5
E9
  8
0
  6
BYBLOCK
 62
     0
 10
2343.071488
 20
1194.400689
 30
0.0
 11
2343.071488
 21
1192.734022
 31
0.0
 12
2348.071488
 22
1193.567355
 32
0.0
 13
2348.071488
 23
1193.567355
 33
0.0
  0
TEXT
  8
0
  40
4
  5
119
  62
0
  72
0
  71
0
 10
2324.45
 20
1191.11
 30
0.000000
  1
42.25
  0
POINT
  5
EB
  8
DEFPOINTS
  6
BYBLOCK
 62
     0
 10
2305.821488
 20
1212.752071
 30
0.0
  0
POINT
  5
EC
  8
DEFPOINTS
  6
BYBLOCK
 62
     0
 10
2348.071488
 20
1212.752071
 30
0.0
  0
POINT
  5
ED
  8
DEFPOINTS
  6
BYBLOCK
 62
     0
 10
2348.071488
 20
1193.567355
 30
0.0
  0
ENDBLK
  5
EE
  8
0
  0
BLOCK
  8
0
  2
*D2
 70
     1
 10
0.0
 20
0.0
 30
0.0
  3
*D2
  1

  0
LINE
  5
F1
  8
0
  6
BYBLOCK
 62
     0
 10
2369.416756
 20
1191.415134
 30
0.0
 11
2353.85073
 21
1178.462862
 31
0.0
  0
LINE
  5
F2
  8
0
  6
BYBLOCK
 62
     0
 10
2300.042246
 20
1133.689577
 30
0.0
 11
2296.198783
 21
1130.491485
 31
0.0
  0
TEXT
  8
0
  40
4
  5
11A
  62
0
  72
0
  71
0
 10
2352.60
 20
1183.01
 30
0.000000
  1
%%c60
  0
LINE
  5
F4
  8
0
  6
BYBLOCK
 62
     0
 10
2303.885709
 20
1136.887669
 30
0.0
 11
2350.007267
 21
1175.26477
 31
0.0
  0
SOLID
  5
F5
  8
0
  6
BYBLOCK
 62
     0
 10
2299.509231
 20
1134.330154
 30
0.0
 11
2300.575262
 21
1133.049
 31
0.0
 12
2303.885709
 22
1136.887669
 32
0.0
 13
2303.885709
 23
1136.887669
 33
0.0
  0
SOLID
  5
F6
  8
0
  6
BYBLOCK
 62
     0
 10
2353.317715
 20
1179.103439
 30
0.0
 11
2354.383746
 21
1177.822285
 31
0.0
 12
2350.007267
 22
1175.26477
 32
0.0
 13
2350.007267
 23
1175.26477
 33
0.0
  0
POINT
  5
F7
  8
DEFPOINTS
  6
BYBLOCK
 62
     0
 10
2350.007267
 20
1175.26477
 30
0.0
  0
POINT
  5
F8
  8
DEFPOINTS
  6
BYBLOCK
 62
     0
 10
2303.885709
 20
1136.887669
 30
0.0
  0
ENDBLK
  5
F9
  8
0
  0
BLOCK
  8
0
  2
*D3
 70
     1
 10
0.0
 20
0.0
 30
0.0
  3
*D3
  1

  0
LINE
  5
FD
  8
0
  6
BYBLOCK
 62
     0
 10
2285.109364
 20
1188.68481
 30
0.0
 11
2318.664876
 21
1162.531054
 31
0.0
  0
LINE
  5
FE
  8
0
  6
BYBLOCK
 62
     0
 10
2335.228101
 20
1149.621385
 30
0.0
 11
2339.171726
 21
1146.547654
 31
0.0
  0
TEXT
  8
0
  40
4
  5
11B
  62
0
  72
0
  71
0
 10
2285.18
 20
1181.18
 30
0.000000
  1
%%c11
  0
LINE
  5
100
  8
0
  6
BYBLOCK
 62
     0
 10
2331.284476
 20
1152.695116
 30
0.0
 11
2322.608501
 21
1159.457323
 31
0.0
  0
SOLID
  5
101
  8
0
  6
BYBLOCK
 62
     0
 10
2335.740389
 20
1150.278656
 30
0.0
 11
2334.715813
 21
1148.964114
 31
0.0
 12
2331.284476
 22
1152.695116
 32
0.0
 13
2331.284476
 23
1152.695116
 33
0.0
  0
SOLID
  5
102
  8
0
  6
BYBLOCK
 62
     0
 10
2319.177164
 20
1163.188325
 30
0.0
 11
2318.152587
 21
1161.873783
 31
0.0
 12
2322.608501
 22
1159.457323
 32
0.0
 13
2322.608501
 23
1159.457323
 33
0.0
  0
POINT
  5
103
  8
DEFPOINTS
  6
BYBLOCK
 62
     0
 10
2322.608501
 20
1159.457323
 30
0.0
  0
POINT
  5
104
  8
DEFPOINTS
  6
BYBLOCK
 62
     0
 10
2331.284476
 20
1152.695116
 30
0.0
  0
ENDBLK
  5
105
  8
0
  0
BLOCK
  8
0
  2
*D4
 70
     1
 10
0.0
 20
0.0
 30
0.0
  3
*D4
  1

  0
LINE
  5
109
  8
0
  6
BYBLOCK
 62
     0
 10
2377.675394
 20
1134.186939
 30
0.0
 11
2359.082447
 21
1142.209707
 31
0.0
  0
LINE
  5
10A
  8
0
  6
BYBLOCK
 62
     0
 10
2294.81053
 20
1169.942732
 30
0.0
 11
2290.219678
 21
1171.923662
 31
0.0
  0
TEXT
  8
0
  40
4
  5
11C
  62
0
  72
0
  71
0
 10
2364.51
 20
1134.37
 30
0.000000
  1
%%c60
  0
LINE
  5
10C
  8
0
  6
BYBLOCK
 62
     0
 10
2299.401381
 20
1167.961802
 30
0.0
 11
2354.491596
 21
1144.190638
 31
0.0
  0
SOLID
  5
10D
  8
0
  6
BYBLOCK
 62
     0
 10
2295.140685
 20
1170.707874
 30
0.0
 11
2294.480375
 21
1169.17759
 31
0.0
 12
2299.401381
 22
1167.961802
 32
0.0
 13
2299.401381
 23
1167.961802
 33
0.0
  0
SOLID
  5
10E
  8
0
  6
BYBLOCK
 62
     0
 10
2359.412602
 20
1142.974849
 30
0.0
 11
2358.752292
 21
1141.444565
 31
0.0
 12
2354.491596
 22
1144.190638
 32
0.0
 13
2354.491596
 23
1144.190638
 33
0.0
  0
POINT
  5
10F
  8
DEFPOINTS
  6
BYBLOCK
 62
     0
 10
2354.491596
 20
1144.190638
 30
0.0
  0
POINT
  5
110
  8
DEFPOINTS
  6
BYBLOCK
 62
     0
 10
2299.401381
 20
1167.961802
 30
0.0
  0
ENDBLK
  5
111
  8
0
  0
ENDSEC
  0
SECTION
  2
ENTITIES
  0
CIRCLE
  5
1E
  8
0
 10
2326.946488
 20
1156.07622
 30
0.0
 40
30.0
  0
LINE
  5
1F
  8
MATEN
  6
CENTER
 10
2377.452839
 20
1156.07622
 30
0.0
 11
2280.913019
 21
1156.07622
 31
0.0
  0
LINE
  5
20
  8
0
 10
2345.371488
 20
1212.752071
 30
0.0
 11
2350.771488
 21
1212.752071
 31
0.0
  0
LINE
  5
21
  8
0
 10
2345.371488
 20
1222.852071
 30
0.0
 11
2350.771488
 21
1222.852071
 31
0.0
  0
LINE
  5
22
  8
0
 10
2333.046488
 20
1212.452071
 30
0.0
 11
2356.946488
 21
1212.452071
 31
0.0
  0
LINE
  5
23
  8
0
 10
2340.196488
 20
1223.152071
 30
0.0
 11
2356.946488
 21
1223.152071
 31
0.0
  0
ARC
  5
24
  8
0
 10
2305.821488
 20
1156.07622
 30
0.0
 40
2.35
 50
90.0
 51
0.0
  0
CIRCLE
  5
25
  8
0
 10
2305.821488
 20
1156.07622
 30
0.0
 40
3.0
  0
TEXT
  8
0
  40
4
  5
11D
  72
0
  71
0
 10
2260.58
 20
1184.19
 30
0.000000
  1
A
  0
POLYLINE
  8
0
  5
11E
  66
     1
 10
0.000000
 20
0.000000
 30
0.000000
  70
     8
  0
VERTEX
  8
0
  5
11F
 10
2280.91
 20
1156.08
 30
0.000000
  70
    32
  0
VERTEX
  8
0
  5
120
 10
2276.21
 20
1186.65
 30
0.000000
  70
    32
  0
VERTEX
  8
0
  5
121
 10
2271.21
 20
1186.65
 30
0.000000
  70
    32
  0
SEQEND
  8
0
  5
122
  0
CIRCLE
  5
28
  8
0
  6
DASHED
 10
2326.946488
 20
1156.07622
 30
0.0
 40
12.25
  0
CIRCLE
  5
2A
  8
0
  6
DASHED
 10
2326.946488
 20
1156.07622
 30
0.0
 40
12.0
  0
CIRCLE
  5
2B
  8
0
 10
2326.946488
 20
1156.07622
 30
0.0
 40
5.5
  0
LINE
  5
2C
  8
0
 10
2303.121488
 20
1222.852071
 30
0.0
 11
2308.521488
 21
1222.852071
 31
0.0
  0
LINE
  5
2D
  8
0
 10
2303.121488
 20
1212.752071
 30
0.0
 11
2308.521488
 21
1212.752071
 31
0.0
  0
LINE
  5
2E
  8
0
 10
2296.946488
 20
1212.452071
 30
0.0
 11
2320.846488
 21
1212.452071
 31
0.0
  0
LINE
  5
2F
  8
0
 10
2296.946488
 20
1223.152071
 30
0.0
 11
2313.696488
 21
1223.152071
 31
0.0
  0
LINE
  5
30
  8
0
 10
2303.121488
 20
1212.752071
 30
0.0
 11
2302.821488
 21
1212.452071
 31
0.0
  0
LINE
  5
31
  8
0
 10
2303.121488
 20
1222.852071
 30
0.0
 11
2302.821488
 21
1223.152071
 31
0.0
  0
LINE
  5
32
  8
0
 10
2303.121488
 20
1212.752071
 30
0.0
 11
2303.121488
 21
1222.852071
 31
0.0
  0
LINE
  5
33
  8
0
 10
2302.821488
 20
1212.452071
 30
0.0
 11
2302.821488
 21
1223.152071
 31
0.0
  0
LINE
  5
34
  8
0
 10
2296.946488
 20
1223.152071
 30
0.0
 11
2296.946488
 21
1212.452071
 31
0.0
  0
LINE
  5
35
  8
0
 10
2308.521488
 20
1212.752071
 30
0.0
 11
2308.821488
 21
1212.452071
 31
0.0
  0
LINE
  5
36
  8
0
 10
2308.521488
 20
1222.852071
 30
0.0
 11
2308.821488
 21
1223.152071
 31
0.0
  0
LINE
  5
37
  8
0
 10
2308.521488
 20
1212.752071
 30
0.0
 11
2308.521488
 21
1222.852071
 31
0.0
  0
LINE
  5
39
  8
0
 10
2308.821488
 20
1212.452071
 30
0.0
 11
2308.821488
 21
1223.152071
 31
0.0
  0
LINE
  5
3A
  8
0
 10
2345.371488
 20
1212.752071
 30
0.0
 11
2345.071488
 21
1212.452071
 31
0.0
  0
LINE
  5
3B
  8
0
 10
2345.371488
 20
1222.852071
 30
0.0
 11
2345.071488
 21
1223.152071
 31
0.0
  0
LINE
  5
3C
  8
0
 10
2345.371488
 20
1212.752071
 30
0.0
 11
2345.371488
 21
1222.852071
 31
0.0
  0
LINE
  5
3D
  8
0
 10
2345.071488
 20
1212.452071
 30
0.0
 11
2345.071488
 21
1223.152071
 31
0.0
  0
LINE
  5
3E
  8
0
 10
2333.046488
 20
1215.452071
 30
0.0
 11
2338.946488
 21
1215.452071
 31
0.0
  0
LINE
  5
3F
  8
0
 10
2332.446488
 20
1213.052071
 30
0.0
 11
2333.046488
 21
1212.452071
 31
0.0
  0
LINE
  5
40
  8
0
 10
2332.446488
 20
1213.052071
 30
0.0
 11
2332.446488
 21
1214.852071
 31
0.0
  0
LINE
  5
41
  8
0
 10
2332.446488
 20
1214.852071
 30
0.0
 11
2333.046488
 21
1215.452071
 31
0.0
  0
LINE
  5
42
  8
0
 10
2320.846488
 20
1215.452071
 30
0.0
 11
2321.446488
 21
1214.852071
 31
0.0
  0
LINE
  5
43
  8
0
 10
2321.446488
 20
1213.052071
 30
0.0
 11
2321.446488
 21
1214.852071
 31
0.0
  0
LINE
  5
44
  8
0
 10
2314.946488
 20
1215.452071
 30
0.0
 11
2320.846488
 21
1215.452071
 31
0.0
  0
LINE
  5
45
  8
0
 10
2320.846488
 20
1212.452071
 30
0.0
 11
2321.446488
 21
1213.052071
 31
0.0
  0
LINE
  5
46
  8
0
 10
2339.196488
 20
1222.152071
 30
0.0
 11
2340.196488
 21
1223.152071
 31
0.0
  0
LINE
  5
47
  8
0
 10
2339.196488
 20
1219.952071
 30
0.0
 11
2339.196488
 21
1222.152071
 31
0.0
  0
LINE
  5
48
  8
0
 10
2338.946488
 20
1219.952071
 30
0.0
 11
2339.196488
 21
1219.952071
 31
0.0
  0
LINE
  5
49
  8
0
 10
2338.946488
 20
1215.452071
 30
0.0
 11
2338.946488
 21
1219.952071
 31
0.0
  0
LINE
  5
4A
  8
0
 10
2338.946488
 20
1218.052071
 30
0.0
 11
2338.946488
 21
1215.452071
 31
0.0
  0
LINE
  5
4C
  8
0
 10
2313.696488
 20
1223.152071
 30
0.0
 11
2314.696488
 21
1222.152071
 31
0.0
  0
LINE
  5
4D
  8
0
 10
2314.696488
 20
1219.952071
 30
0.0
 11
2314.696488
 21
1222.152071
 31
0.0
  0
LINE
  5
4E
  8
0
 10
2314.946488
 20
1219.952071
 30
0.0
 11
2314.696488
 21
1219.952071
 31
0.0
  0
LINE
  5
4F
  8
0
 10
2314.946488
 20
1215.452071
 30
0.0
 11
2314.946488
 21
1219.952071
 31
0.0
  0
LINE
  5
50
  8
0
 10
2314.946488
 20
1218.052071
 30
0.0
 11
2314.946488
 21
1215.452071
 31
0.0
  0
LINE
  5
51
  8
0
 10
2338.946488
 20
1218.052071
 30
0.0
 11
2314.946488
 21
1218.052071
 31
0.0
  0
LINE
  5
52
  8
0
 10
2338.946488
 20
1221.852071
 30
0.0
 11
2314.946488
 21
1221.852071
 31
0.0
  0
LINE
  5
53
  8
0
 10
2338.946488
 20
1225.702071
 30
0.0
 11
2314.946482
 21
1227.222762
 31
0.0
  0
LINE
  5
54
  8
0
 10
2338.946488
 20
1226.702071
 30
0.0
 11
2314.946482
 21
1228.181381
 31
0.0
  0
LINE
  5
55
  8
0
 10
2338.946488
 20
1229.702071
 30
0.0
 11
2314.946482
 21
1231.222762
 31
0.0
  0
LINE
  5
56
  8
0
 10
2338.946488
 20
1230.702071
 30
0.0
 11
2314.946482
 21
1232.202071
 31
0.0
  0
LINE
  5
57
  8
0
 10
2338.946488
 20
1233.702071
 30
0.0
 11
2314.946482
 21
1235.202071
 31
0.0
  0
LINE
  5
58
  8
0
 10
2338.946488
 20
1234.681381
 30
0.0
 11
2314.946482
 21
1236.202071
 31
0.0
  0
LINE
  5
59
  8
0
 10
2338.946488
 20
1237.722762
 30
0.0
 11
2314.946482
 21
1239.202071
 31
0.0
  0
LINE
  5
5A
  8
0
 10
2338.946488
 20
1238.702071
 30
0.0
 11
2314.946482
 21
1240.202071
 31
0.0
  0
LINE
  5
5B
  8
0
 10
2338.946488
 20
1241.702071
 30
0.0
 11
2314.946482
 21
1243.202071
 31
0.0
  0
LINE
  5
5C
  8
0
 10
2338.946488
 20
1242.681381
 30
0.0
 11
2314.946482
 21
1244.181381
 31
0.0
  0
LINE
  5
5D
  8
0
 10
2338.946488
 20
1224.452071
 30
0.0
 11
2314.946488
 21
1224.452071
 31
0.0
  0
LINE
  5
5E
  8
0
 10
2314.080456
 20
1224.452071
 30
0.0
 11
2340.425508
 21
1224.452071
 31
0.0
  0
LINE
  5
5F
  8
MATEN
 10
2338.946488
 20
1245.452071
 30
0.0
 11
2314.946488
 21
1245.452071
 31
0.0
  0
LINE
  5
60
  8
0
 10
2313.446482
 20
1245.452071
 30
0.0
 11
2339.812514
 21
1245.452071
 31
0.0
  0
LINE
  5
61
  8
0
 10
2338.946488
 20
1215.452071
 30
0.0
 11
2314.946488
 21
1215.452071
 31
0.0
  0
LINE
  5
62
  8
0
 10
2321.946488
 20
1218.052071
 30
0.0
 11
2321.946488
 21
1215.452071
 31
0.0
  0
ARC
  5
63
  8
0
 10
2318.446488
 20
1219.952071
 30
0.0
 40
2.2
 50
300.272641
 51
59.727359
  0
ARC
  5
64
  8
0
 10
2318.446488
 20
1219.952071
 30
0.0
 40
2.2
 50
120.272641
 51
239.727359
  0
ARC
  5
65
  8
0
 10
2314.946482
 20
1225.702071
 30
0.0
 40
1.520691
 50
87.514275
 51
235.284996
  0
ARC
  5
66
  8
0
 10
2314.946482
 20
1229.702071
 30
0.0
 40
1.520691
 50
87.514275
 51
270.0
  0
ARC
  5
67
  8
0
 10
2314.946482
 20
1233.702071
 30
0.0
 40
1.5
 50
87.613021
 51
270.0
  0
ARC
  5
68
  8
0
 10
2314.946482
 20
1237.702071
 30
0.0
 40
1.5
 50
87.711771
 51
270.0
  0
ARC
  5
69
  8
0
 10
2314.946482
 20
1241.702071
 30
0.0
 40
1.5
 50
87.613021
 51
270.0
  0
ARC
  5
6F
  8
0
 10
2314.946482
 20
1245.702071
 30
0.0
 40
1.520691
 50
189.462322
 51
270.0
  0
LINE
  5
70
  8
0
 10
2321.946488
 20
1224.452071
 30
0.0
 11
2321.946488
 21
1221.852071
 31
0.0
  0
LINE
  5
71
  8
0
 10
2314.946488
 20
1224.452071
 30
0.0
 11
2314.946488
 21
1221.852071
 31
0.0
  0
LINE
  5
72
  8
0
 10
2331.946488
 20
1218.052071
 30
0.0
 11
2331.946488
 21
1215.452071
 31
0.0
  0
ARC
  5
73
  8
0
 10
2335.446488
 20
1219.952071
 30
0.0
 40
2.2
 50
120.272641
 51
239.727359
  0
ARC
  5
74
  8
0
 10
2335.446488
 20
1219.952071
 30
0.0
 40
2.2
 50
300.272641
 51
59.727359
  0
ARC
  5
75
  8
0
 10
2338.946488
 20
1228.202071
 30
0.0
 40
1.5
 50
267.711771
 51
90.0
  0
ARC
  5
76
  8
0
 10
2338.946488
 20
1232.202071
 30
0.0
 40
1.5
 50
267.613021
 51
90.0
  0
ARC
  5
77
  8
0
 10
2338.946488
 20
1236.202071
 30
0.0
 40
1.520691
 50
267.514275
 51
90.0
  0
ARC
  5
78
  8
0
 10
2338.946488
 20
1240.202071
 30
0.0
 40
1.5
 50
267.613021
 51
90.0
  0
ARC
  5
79
  8
0
 10
2338.946488
 20
1244.202071
 30
0.0
 40
1.520691
 50
267.613021
 51
55.284996
  0
ARC
  5
7A
  8
0
 10
2338.946488
 20
1224.202071
 30
0.0
 40
1.5
 50
9.594068
 51
90.0
  0
LINE
  5
80
  8
0
 10
2331.946488
 20
1224.452071
 30
0.0
 11
2331.946488
 21
1221.852071
 31
0.0
  0
LINE
  5
81
  8
0
 10
2338.946488
 20
1224.452071
 30
0.0
 11
2338.946488
 21
1221.852071
 31
0.0
  0
TEXT
  8
0
  40
4
  5
123
  72
0
  71
0
 10
2380.29
 20
1181.96
 30
0.000000
  1
A
  0
POLYLINE
  8
0
  5
124
  66
     1
 10
0.000000
 20
0.000000
 30
0.000000
  70
     8
  0
VERTEX
  8
0
  5
125
 10
2377.45
 20
1156.08
 30
0.000000
  70
    32
  0
VERTEX
  8
0
  5
126
 10
2380.66
 20
1184.41
 30
0.000000
  70
    32
  0
VERTEX
  8
0
  5
127
 10
2385.66
 20
1184.41
 30
0.000000
  70
    32
  0
SEQEND
  8
0
  5
128
  0
ARC
  5
84
  8
0
 10
2351.071488
 20
1156.07622
 30
0.0
 40
2.35
 50
0.0
 51
270.0
  0
CIRCLE
  5
85
  8
0
 10
2351.071488
 20
1156.07622
 30
0.0
 40
3.0
  0
LINE
  5
86
  8
0
 10
2350.771488
 20
1212.752071
 30
0.0
 11
2351.071488
 21
1212.452071
 31
0.0
  0
LINE
  5
87
  8
0
 10
2350.771488
 20
1222.852071
 30
0.0
 11
2351.071488
 21
1223.152071
 31
0.0
  0
LINE
  5
88
  8
0
 10
2350.771488
 20
1212.752071
 30
0.0
 11
2350.771488
 21
1222.852071
 31
0.0
  0
LINE
  5
89
  8
0
 10
2351.071488
 20
1212.452071
 30
0.0
 11
2351.071488
 21
1223.152071
 31
0.0
  0
LINE
  5
8A
  8
0
 10
2356.946488
 20
1223.152071
 30
0.0
 11
2356.946488
 21
1212.452071
 31
0.0
  0
DIMENSION
  5
A2
  8
MATEN
  2
*D0
 10
2351.071488
 20
1204.677233
 30
0.0
 11
2367.029822
 21
1204.677233
 31
0.0
 70
   128
  1
M<>
 13
2345.071488
 23
1212.452071
 33
0.0
 14
2351.071488
 24
1212.452071
 34
0.0
1001
ACAD
1000
DSTYLE
1002
{
1070
    78
1070
     8
1070
   288
1070
     1
1070
   140
1040
4.0
1070
    74
1070
     0
1070
   172
1070
     1
1070
    73
1070
     0
1070
    77
1070
     1
1070
   147
1040
2.625
1070
    42
1040
0.625
1070
    44
1040
1.25
1070
    43
1040
3.75
1070
   271
1070
     2
1070
   141
1040
2.5
1070
   275
1070
     1
1070
    41
1040
5.0
1070
   273
1070
     8
1070
   274
1070
     4
1070
   143
1040
0.0394
1070
   171
1070
     4
1002
}
  0
DIMENSION
  5
E3
  8
MATEN
  2
*D1
 10
2348.071488
 20
1193.567355
 30
0.0
 11
2332.446488
 21
1193.567355
 31
0.0
 70
   128
 13
2305.821488
 23
1212.752071
 33
0.0
 14
2348.071488
 24
1212.752071
 34
0.0
1001
ACAD
1000
DSTYLE
1002
{
1070
    78
1070
     8
1070
   288
1070
     1
1070
   140
1040
4.0
1070
    74
1070
     0
1070
   172
1070
     1
1070
    73
1070
     0
1070
    77
1070
     1
1070
   147
1040
2.625
1070
    42
1040
0.625
1070
    44
1040
1.25
1070
    43
1040
3.75
1070
   271
1070
     2
1070
   141
1040
2.5
1070
   275
1070
     1
1070
    41
1040
5.0
1070
   273
1070
     8
1070
   274
1070
     4
1070
   143
1040
0.0394
1070
   171
1070
     4
1002
}
  0
DIMENSION
  5
FA
  8
MATEN
  2
*D2
 10
2303.885709
 20
1136.887669
 30
0.0
 11
2363.555475
 21
1186.538044
 31
0.0
 70
   131
 15
2350.007267
 25
1175.26477
 35
0.0
 40
0.0
1001
ACAD
1000
DSTYLE
1002
{
1070
    78
1070
     8
1070
   288
1070
     1
1070
   140
1040
4.0
1070
    74
1070
     0
1070
   172
1070
     1
1070
    73
1070
     0
1070
    77
1070
     1
1070
   147
1040
2.625
1070
    42
1040
0.625
1070
    44
1040
1.25
1070
    43
1040
3.75
1070
   271
1070
     2
1070
   141
1040
2.5
1070
   275
1070
     1
1070
    41
1040
5.0
1070
   273
1070
     8
1070
   274
1070
     4
1070
   143
1040
0.0394
1070
   171
1070
     4
1002
}
  0
DIMENSION
  5
106
  8
MATEN
  2
*D3
 10
2331.284476
 20
1152.695116
 30
0.0
 11
2290.334667
 21
1184.612117
 31
0.0
 70
   131
 15
2322.608501
 25
1159.457323
 35
0.0
 40
0.0
1001
ACAD
1000
DSTYLE
1002
{
1070
    78
1070
     8
1070
   288
1070
     1
1070
   140
1040
4.0
1070
    74
1070
     0
1070
   172
1070
     1
1070
    73
1070
     0
1070
    77
1070
     1
1070
   147
1040
2.625
1070
    42
1040
0.625
1070
    44
1040
1.25
1070
    43
1040
3.75
1070
   271
1070
     2
1070
   141
1040
2.5
1070
   275
1070
     1
1070
    41
1040
5.0
1070
   273
1070
     8
1070
   274
1070
     4
1070
   143
1040
0.0394
1070
   171
1070
     4
1002
}
  0
DIMENSION
  5
112
  8
MATEN
  2
*D4
 10
2299.401381
 20
1167.961802
 30
0.0
 11
2370.674346
 21
1137.207858
 31
0.0
 70
   131
 15
2354.491596
 25
1144.190638
 35
0.0
 40
0.0
1001
ACAD
1000
DSTYLE
1002
{
1070
    78
1070
     8
1070
   288
1070
     1
1070
   140
1040
4.0
1070
    74
1070
     0
1070
   172
1070
     1
1070
    73
1070
     0
1070
    77
1070
     1
1070
   147
1040
2.625
1070
    42
1040
0.625
1070
    44
1040
1.25
1070
    43
1040
3.75
1070
   271
1070
     2
1070
   141
1040
2.5
1070
   275
1070
     1
1070
    41
1040
5.0
1070
   273
1070
     8
1070
   274
1070
     4
1070
   143
1040
0.0394
1070
   171
1070
     4
1002
}
  0
ENDSEC
  0
EOF
